Привет, друг!!!

  • Если что-то не получается
  • Алексей (Skype)
  • katafalk555
  • Помощь по форуму
  • 473868046 Женя
  • Общие вопросы
  • Татьяна (QIP)
  • User ID: tarantinka3
загрузка...

УстановитеFlash player
Чат



Установите Flash playerFlash player
Новые раздачи Топ блоки
[L] My Sunny Resort [28.8] (2015) | RUS/ENG
Игры PC
Информация о игре
Название: Кодекс Пирата
Жанр: Симулятор, Онлайн
Год выпуска: 13 мая 2015
Разработчик: Upjers.com
Издатель: Upjers.com
Тип издания: Лицензия
Версия игры: 12.8
Язык интерфейса: Русский
Язык озвучки: Русский
Таблетка: Не требуется

Описание:
My Sunny Resort - игра про то, как живут менеджеры курортных отелей, всё конечно сделано в игровой форме но часть процессов хорошо отражают реальное расположение дел. Милая и красочная графика ярко отображает морские пейзажи. Милые персонажи неторопливо передвигаются по берегу имея в своих карманах не мало денег, их то и нужно вытягивать из туристов. Сначала остров у игроков выглядит мало привлекательным для туристов, но со временем появятся новые здания разные предметы декорации. Для клиентов в первую очередь нужны бунгало в которых они и будут жить. Бунгало бывают нескольких видов: маленькие, средние, большие, свадебные, огромные и президентские. Но мало построить жильё, нужно его ещё и обустроить, минимум поставить кровать, телевизор и душевую кабинку, тогда туристы согласятся там жить.

Основная цель в игре - превратить свой остров в преуспевающий курорт, а для этого нужно много денег, их то и нужно научиться зарабатывать. Основной источник дохода менеджера отеля — это туристы, за ними нужно ухаживать, и конечно же продавать им разные вещи. Маленькие персонажи которые приехали на отдых готовы тратить свои курортобаксы постоянно и до конца, этим и нужно пользоваться, направляя их в нужное место, где они выложат свои денежки.
Особенности игры:
- Многоуровнений и разносторонний игровой процесс
- Красочная графика и качественная анимация
- Возможность воплотить мечту о собственном курорте, и не одном
- Уникальный опыт карьерного роста - от управления бюджетным отелем до 5-звёздочных предложений класса люкс
- Огромное количество увлекательных задач в виде квестов
- Широкий выбор игровых объектов на каждом уровне разных категорий: рестораны, магазины, предметы декора и роскоши
- Две игровые валюты - курортобаксы и ракушки
- Множество сюрпризов
Системные требования:
Операционная система: Win XP, 7, 8, 8.1, 10;
Процессор: 1,7 ГГц и выше;
Оперативная память: 512 Mб;
Видеокарта: 512 Mб;
Место на жестком диске: 1 Гб;
Установка:
1. Запустить файл установки.
2. Установить игру следуя указаниям установщика.
3. Запустить игру с ярлыка на рабочем столе.


pagef 545.04 MB 1 1 0 2016-08-28 19:34:43 0
[p] Море деревьев / The Sea of Trees (2015) 1080p BDRip | L
Иностранное кино HD-VIDEO
Информация о фильме

Название: Море деревьев
Оригинальное название: The Sea of Trees
Жанр: драма
Страна: США
Год выпуска: 2015
Режиссер: Гас Ван Сент
В ролях: Мэттью МакКонахи, Наоми Уоттс, Кен Ватанабе, Кэтрин Аселтон, Джордан Джаварис, Джеймс Саито, Оуэн Бурк, Марк Бузенски, Сьюзэн ДеБерардинис, Маккензи Хоу

О фильме: Артур Бреннан, дипломированный математик, приезжает в Японию, чтобы своими глазами увидеть «Море деревьев». Так местные жители называют лес Аокигахара, расположенный под горой Фудзи. Прежде всего, лес известен тем, что издревле самураи приезжали сюда для совершения самоубийства. Нарастающий экзистенциальный кризис героя, разваливающийся брак и неудовлетворенность собственной жизнью заставляют его задуматься о суициде, а когда он оказывается в лесу, смутное желание превращается в осознанное решение. Однако на пути Артура встречается японский бизнесмен Такуми, который также хотел покончить с жизнью, но передумал. Вместе герои пытаются выбраться из бесконечной чащи.

Присутствует РЕКЛАМА!!!

1080p BDRip
Любительское (многоголосое) [СПД]


Файл

Прoдолжительность: 01:46:14
Видео: MKV, 10.7 мб/с, 1920x800
Аудио: русский (AC3, 2 ch, 640 кб/с)

http://img.pslan.com/uploads/af07761f1016c90ed4ffdcdb388b3325.gif
.:Angel:. 8.44 GB 3 1 6 2016-08-28 19:26:57 1
[p] Море деревьев / The Sea of Trees (2015) 720p BDRip | L
Иностранное кино HD-VIDEO
Информация о фильме

Название: Море деревьев
Оригинальное название: The Sea of Trees
Жанр: драма
Страна: США
Год выпуска: 2015
Режиссер: Гас Ван Сент
В ролях: Мэттью МакКонахи, Наоми Уоттс, Кен Ватанабе, Кэтрин Аселтон, Джордан Джаварис, Джеймс Саито, Оуэн Бурк, Марк Бузенски, Сьюзэн ДеБерардинис, Маккензи Хоу

О фильме: Артур Бреннан, дипломированный математик, приезжает в Японию, чтобы своими глазами увидеть «Море деревьев». Так местные жители называют лес Аокигахара, расположенный под горой Фудзи. Прежде всего, лес известен тем, что издревле самураи приезжали сюда для совершения самоубийства. Нарастающий экзистенциальный кризис героя, разваливающийся брак и неудовлетворенность собственной жизнью заставляют его задуматься о суициде, а когда он оказывается в лесу, смутное желание превращается в осознанное решение. Однако на пути Артура встречается японский бизнесмен Такуми, который также хотел покончить с жизнью, но передумал. Вместе герои пытаются выбраться из бесконечной чащи.

Присутствует РЕКЛАМА!!!

720p BDRip
Любительское (многоголосое) [СПД]


Файл

Прoдолжительность: 01:46:14
Видео: MKV, 5592 кб/с, 1280x536
Аудио: русский (AC3, 2 ch, 640 кб/с)

http://img.pslan.com/uploads/af07761f1016c90ed4ffdcdb388b3325.gif
.:Angel:. 4.63 GB 2 3 13 2016-08-28 18:56:16 1
[p] Море деревьев / The Sea of Trees (2015) HDRip | L
Иностранное кино
Информация о фильме

Название: Море деревьев
Оригинальное название: The Sea of Trees
Жанр: драма
Страна: США
Год выпуска: 2015
Режиссер: Гас Ван Сент
В ролях: Мэттью МакКонахи, Наоми Уоттс, Кен Ватанабе, Кэтрин Аселтон, Джордан Джаварис, Джеймс Саито, Оуэн Бурк, Марк Бузенски, Сьюзэн ДеБерардинис, Маккензи Хоу

О фильме: Артур Бреннан, дипломированный математик, приезжает в Японию, чтобы своими глазами увидеть «Море деревьев». Так местные жители называют лес Аокигахара, расположенный под горой Фудзи. Прежде всего, лес известен тем, что издревле самураи приезжали сюда для совершения самоубийства. Нарастающий экзистенциальный кризис героя, разваливающийся брак и неудовлетворенность собственной жизнью заставляют его задуматься о суициде, а когда он оказывается в лесу, смутное желание превращается в осознанное решение. Однако на пути Артура встречается японский бизнесмен Такуми, который также хотел покончить с жизнью, но передумал. Вместе герои пытаются выбраться из бесконечной чащи.

Присутствует РЕКЛАМА!!!

HDRip
Любительское (многоголосое) [СПД]


Файл

Прoдолжительность: 01:46:14
Видео: AVI, 1569 кб/с, 720x304
Аудио: русский (AC3, 2 ch, 384 кб/с)

http://img.pslan.com/uploads/af07761f1016c90ed4ffdcdb388b3325.gif
.:Angel:. 1.46 GB 8 1 22 2016-08-28 18:53:45 1
Сорвиголова / Daredevil.S02.2160p.NF.WEBRip
Иностранные сериалы
http://img.pslan.com/uploads/6f0c9e1279b612628a98092d62a21b17.jpg

Информация о сериале

http://img.pslan.com/uploads/e91496d95e8839a68f61e7df2ef0efc7.jpg
Название: Сорвиголова (2 сезон: 1-13 серии из 13)
Оригинальное название: Daredevil
Жанр: фантастика, боевик
Страна: США, ABC Television Studio, Marvel Entertainment, Walt Disney Company
Год выпуска: 2016
Режиссер: Фил Абрахам
В ролях: Чарли Кокс, Дебора Энн Уолл, Элден Хенсон, Розарио Доусон, Винсент Д`Онофрио, Айелет Зурер, Боб Гантон, Тоби Мур, Вонди Куртис-Холл, Роб Морган

О фильме: Мэтт Мердок отличный специалист, но в результате несчастного случае он потерял зрение еще в юном возрасте. Как известно, люди, потерявшие какой-либо орган чувств, усиливают все остальные рефлексы в несколько раз. Именно поэтому, лишенный зрения Мэрдок отлично чувствует и слышит все происходящее вокруг. Он решает посвятить свою жизнь борьбе с преступностью. Теперь он с утра и до вечера - успешный адвокат, а ночью превращается в неуловимого мстителя в маске по прозвищу Сорвиголова! Ночной город может спасть спокойно, когда на улицах города вершит правосудие этот человек, способный остановить любого злодея!
Знаете ли вы, что...

• В основе сериала лежит комикс Фрэнка Миллера «Человек без страха» (The Man Without Fear).
• События сериала развиваются в кинематографической вселенной Marvel.
• Майкл С. Холл рассматривался на роль Сорвиголовы.
• Создатели сериала отметили, что источником вдохновения для них были криминальные фильмы «Французский связной» (1971) и «Таксист» (1976). Они хотели преподнести зрителю сериал в первую очередь как криминальную драму, а уже во вторую — как шоу о супергерое.
• Продюсер Джо Куэсада хотел, чтобы Чарли Кокс сыграл роль Сорвиголовы еще до того момента, когда студия Marvel вернула себе права на этого персонажа.
• Изначально Дрю Годдард был нанят на должность исполнительного продюсера для первого сезона сериала, но он покинул проект, поскольку получил место режиссера в полнометражном фильме студии Marvel «Зловещая шестерка» (2016). В итоге в сериале его место досталось Стивену С. ДеНайту.
• Хотя красный костюм Сорвиголовы широко известен, оригинальный костюм из комиксов был желто-коричневым.
• Еще в 1983 году канал ABC планировал снять сериал «Сорвиголова». Стёрлинг Силлифант даже написал сценарий к пилотному эпизоду, однако он так и не был показан по телевидению.
• Во второй серии первого сезона отец главного героя встречается на боксерском ринге в судьбоносном поединке с противником по фамилии Крил. На плакатах, анонсирующих этот бой, можно увидеть полное имя противника: Carl «Crusher» Creel. Это имя принадлежит суперзлодею из комиксов Marvel по прозвищу Поглотитель. Данный персонаж также присутствует лично в первых двух сериях второго сезона другого сериала, относящегося к кинематографической вселенной Marvel - «Агенты Щ.И.Т.» (2013), где упоминается, что в прошлом он был боксером.
• В сериале бандиты, устраивающие для отца Мэтта, Джека «Бойца» Мердока заказные бои, требуют чтобы Джек проиграл бой с боксером Криллом в 5-м раунде, хотя в комиксах Джек должен был упасть в 4-м раунде.
• Режиссер Джосс Уидон, активно настаивал чтобы Сорвиголова, в кинематографической вселенной MARVEL, изначально был полнометражным фильмом, а не сериалом. Однако в последствии признал, что некоторые комиксы действительно больше подходят под формат сериалов.

Ошибки в сериале

• На протяжении сериала, при показе панорамы Манхэттена, можно заметить здание MetLife. Присутствие здания является сюжетной ошибкой, поскольку на месте здания должна быть расположена Башня Мстителей (Avengers Tower), ранее именуемая Башней Старка (Stark Tower). По сюжету Кинематографической вселенной, Старк купил здание MetLife и перестроил его в башню.
• В четвёртой серии второго сезона Катателя пытают ирландские бандиты. Френку просверливают ботинки из-за чего они все в крови. В конце серии, когда Карателя везут на каталке, его ботинки целые и чистые без капли крови.

Награды

https://st.kp.yandex.net/images/award-sag-small-no.jpg
Премия Гильдии актеров, 2016 год

Номинации (1):
                  Лучший каскадерский состав в телевизионном сериале

Содержание

01. Бах (Bang)
02. Псы на перестрелке (Dogs to a Gunfight)
03. Прелести Нью-Йорка (New York's Finest)
04. Вот и кончилась игра (Penny and Dime)
05. Кинбаку (Kinbaku)
06. Одни сожаления (Regrets Only)
07. Всегда верен (Semper Fidelis)
08. Виновен на все сто (Guilty as Sin)
09. Семь минут в раю (Seven Minutes in Heaven)
10. Человек в клетке (The Man in the Box)
11. Триста восьмидесятый (.380)
12. Тьма в конце тоннеля (The Dark at the End of the Tunnel)
13. Холодный день в Адской Кухне (A Cold Day in Hell's Kitchen)

Релиз
Русские дороги и субтитры: Grandfather61
Работа со звуком: k-marat-s, Grandfather61
Дорожка #1 получена наложением выделенных голосов от «LostFilm» на центр оригинального AC3 - k-marat-s
Дорожка #4 получена наложением чистых голосов от «Jaskier» на центр оригинального AC3 - k-marat-s
Перевод субтитров: 1-я серия (Vito_Feed), со 2 серии (sam_win4ester)
Cинхронизация субтитров: Grandfather61
Особая благодарность k-marat-s за помощь в подготовке релиза

Качество: 2160p WEBRip Lossless HDMI Netflix UHD capture
Видео: AVC, 3840x2160, ~28.4 мб/с

Файл

Прoдолжительность: 13 x ~ 00:48:00

Аудио:
русский: (АС3, 6 ch, 384 кб/с) | Профессиональный (многоголосый), LostFilm
русский: (АС3, 6 ch, 384 кб/с) | Профессиональный (многоголосый), NewStudio
русский: (АС3, 6 ch, 384 кб/с) | Профессиональный (многоголосый), IdeaFilm
русский: (АС3, 6 ch, 384 кб/с) | Профессиональный (многоголосый), Jaskier
русский: (АС3, 6 ch, 384 кб/с) | Профессиональный (многоголосый), BaibaKo
английский: (АС3, 6 ch, 640 кб/с)

Субтитры: русские (notabenoid), английские, французские, немецкие, испанские

MediaInfo

General
Unique ID                                : 250174694485035729023146983902331737563 (0xBC35E4BF471668A5AC159B05A0CB15DB)
Complete name                            : S:\На хранении\Marvels.Daredevil.S02.2160p.WEBRip.RuTracker\Marvels.Daredevil.S02E01.2160p.WEBRip.RuTracker.mkv
Format                                   : Matroska
Format version                           : Version 4 / Version 2
File size                                : 10.5 GiB
Duration                                 : 48mn 4s
Overall bit rate                         : 31.3 Mbps
Movie name                               : Release for RuTracker
Encoded date                             : UTC 2016-05-04 16:57:28
Writing application                      : mkvmerge v9.0.1 ('Obstacles') 64bit
Writing library                          : libebml v1.3.3 + libmatroska v1.4.4
Cover                                    : Yes
Attachments                              : cover.jpg

Video
ID                                       : 1
Format                                   : AVC
Format/Info                              : Advanced Video Codec
Format profile                           : High@L5.1
Format settings, CABAC                   : Yes
Format settings, ReFrames                : 5 frames
Codec ID                                 : V_MPEG4/ISO/AVC
Duration                                 : 48mn 4s
Bit rate                                 : 29.0 Mbps
Width                                    : 3 840 pixels
Height                                   : 2 160 pixels
Display aspect ratio                     : 16:9
Frame rate mode                          : Constant
Frame rate                               : 23.976 (24000/1001) fps
Color space                              : YUV
Chroma subsampling                       : 4:2:0
Bit depth                                : 8 bits
Scan type                                : Progressive
Bits/(Pixel*Frame)                       : 0.146
Stream size                              : 9.72 GiB (93%)
Title                                    : Daredevil: Season 2, Episode 1: Bang (2016)
Writing library                          : x264 core 148 r2665 a01e339
Encoding settings                        : cabac=1 / ref=5 / deblock=1:-1:-1 / analyse=0x3:0x133 / me=umh / subme=10 / psy=1 / psy_rd=1.05:0.00 / mixed_ref=1 / me_range=24 / chroma_me=1 / trellis=2 / 8x8dct=1 / cqm=0 / deadzone=21,11 / fast_pskip=1 / chroma_qp_offset=-2 / threads=24 / lookahead_threads=4 / sliced_threads=0 / nr=0 / decimate=1 / interlaced=0 / bluray_compat=0 / constrained_intra=0 / bframes=8 / b_pyramid=2 / b_adapt=2 / b_bias=0 / direct=3 / weightb=1 / open_gop=0 / weightp=2 / keyint=250 / keyint_min=23 / scenecut=40 / intra_refresh=0 / rc_lookahead=60 / rc=crf / mbtree=1 / crf=18.0 / qcomp=0.60 / qpmin=0 / qpmax=69 / qpstep=4 / ip_ratio=1.40 / aq=2:0.90
Language                                 : English
Default                                  : Yes
Forced                                   : No
Color range                              : Limited
Color primaries                          : BT.709
Transfer characteristics                 : BT.709
Matrix coefficients                      : BT.709

Audio #1
ID                                       : 2
Format                                   : AC-3
Format/Info                              : Audio Coding 3
Mode extension                           : CM (complete main)
Format settings, Endianness              : Big
Codec ID                                 : A_AC3
Duration                                 : 48mn 4s
Bit rate mode                            : Constant
Bit rate                                 : 384 Kbps
Channel(s)                               : 6 channels
Channel positions                        : Front: L C R, Side: L R, LFE
Sampling rate                            : 48.0 KHz
Frame rate                               : 31.250 fps (1536 spf)
Compression mode                         : Lossy
Stream size                              : 132 MiB (1%)
Title                                    : LostFilm 5.1
Language                                 : Russian
Default                                  : Yes
Forced                                   : No

Audio #2
ID                                       : 3
Format                                   : AC-3
Format/Info                              : Audio Coding 3
Mode extension                           : CM (complete main)
Format settings, Endianness              : Big
Codec ID                                 : A_AC3
Duration                                 : 48mn 4s
Bit rate mode                            : Constant
Bit rate                                 : 384 Kbps
Channel(s)                               : 6 channels
Channel positions                        : Front: L C R, Side: L R, LFE
Sampling rate                            : 48.0 KHz
Frame rate                               : 31.250 fps (1536 spf)
Compression mode                         : Lossy
Stream size                              : 132 MiB (1%)
Title                                    : NewStudio 5.1
Language                                 : Russian
Default                                  : No
Forced                                   : No

Audio #3
ID                                       : 4
Format                                   : AC-3
Format/Info                              : Audio Coding 3
Mode extension                           : CM (complete main)
Format settings, Endianness              : Big
Codec ID                                 : A_AC3
Duration                                 : 48mn 4s
Bit rate mode                            : Constant
Bit rate                                 : 384 Kbps
Channel(s)                               : 6 channels
Channel positions                        : Front: L C R, Side: L R, LFE
Sampling rate                            : 48.0 KHz
Frame rate                               : 31.250 fps (1536 spf)
Compression mode                         : Lossy
Stream size                              : 132 MiB (1%)
Title                                    : IdeaFilm 5.1
Language                                 : Russian
Default                                  : No
Forced                                   : No

Audio #4
ID                                       : 5
Format                                   : AC-3
Format/Info                              : Audio Coding 3
Mode extension                           : CM (complete main)
Format settings, Endianness              : Big
Codec ID                                 : A_AC3
Duration                                 : 48mn 4s
Bit rate mode                            : Constant
Bit rate                                 : 384 Kbps
Channel(s)                               : 6 channels
Channel positions                        : Front: L C R, Side: L R, LFE
Sampling rate                            : 48.0 KHz
Frame rate                               : 31.250 fps (1536 spf)
Compression mode                         : Lossy
Stream size                              : 132 MiB (1%)
Title                                    : Jaskier 5.1
Language                                 : Russian
Default                                  : No
Forced                                   : No

Audio #5
ID                                       : 6
Format                                   : AC-3
Format/Info                              : Audio Coding 3
Mode extension                           : CM (complete main)
Format settings, Endianness              : Big
Codec ID                                 : A_AC3
Duration                                 : 48mn 4s
Bit rate mode                            : Constant
Bit rate                                 : 384 Kbps
Channel(s)                               : 6 channels
Channel positions                        : Front: L C R, Side: L R, LFE
Sampling rate                            : 48.0 KHz
Frame rate                               : 31.250 fps (1536 spf)
Compression mode                         : Lossy
Stream size                              : 132 MiB (1%)
Title                                    : BaibaKo 5.1
Language                                 : Russian
Default                                  : No
Forced                                   : No

Audio #6
ID                                       : 7
Format                                   : AC-3
Format/Info                              : Audio Coding 3
Mode extension                           : CM (complete main)
Format settings, Endianness              : Big
Codec ID                                 : A_AC3
Duration                                 : 48mn 4s
Bit rate mode                            : Constant
Bit rate                                 : 384 Kbps
Channel(s)                               : 6 channels
Channel positions                        : Front: L C R, Side: L R, LFE
Sampling rate                            : 48.0 KHz
Frame rate                               : 31.250 fps (1536 spf)
Compression mode                         : Lossy
Stream size                              : 132 MiB (1%)
Title                                    : original 5.1
Language                                 : English
Default                                  : No
Forced                                   : No

Text #1
ID                                       : 8
Format                                   : UTF-8
Codec ID                                 : S_TEXT/UTF8
Codec ID/Info                            : UTF-8 Plain Text
Duration                                 : 46mn 41s
Bit rate                                 : 107 bps
Count of elements                        : 620
Stream size                              : 36.9 KiB (0%)
Title                                    : rus
Language                                 : Russian
Default                                  : No
Forced                                   : No

Text #2
ID                                       : 9
Format                                   : UTF-8
Codec ID                                 : S_TEXT/UTF8
Codec ID/Info                            : UTF-8 Plain Text
Duration                                 : 46mn 34s
Bit rate                                 : 63 bps
Count of elements                        : 614
Stream size                              : 21.5 KiB (0%)
Title                                    : CC
Language                                 : English
Default                                  : No
Forced                                   : No

Text #3
ID                                       : 10
Format                                   : UTF-8
Codec ID                                 : S_TEXT/UTF8
Codec ID/Info                            : UTF-8 Plain Text
Duration                                 : 47mn 40s
Bit rate                                 : 59 bps
Count of elements                        : 600
Stream size                              : 20.6 KiB (0%)
Title                                    : Fre
Language                                 : French
Default                                  : No
Forced                                   : No

Text #4
ID                                       : 11
Format                                   : UTF-8
Codec ID                                 : S_TEXT/UTF8
Codec ID/Info                            : UTF-8 Plain Text
Duration                                 : 46mn 34s
Bit rate                                 : 61 bps
Count of elements                        : 594
Stream size                              : 20.9 KiB (0%)
Title                                    : Ger
Language                                 : German
Default                                  : No
Forced                                   : No

Text #5
ID                                       : 12
Format                                   : UTF-8
Codec ID                                 : S_TEXT/UTF8
Codec ID/Info                            : UTF-8 Plain Text
Duration                                 : 46mn 34s
Bit rate                                 : 58 bps
Count of elements                        : 600
Stream size                              : 19.9 KiB (0%)
Title                                    : Spa
Language                                 : Spanish
Default                                  : No
Forced                                   : No

Скриншоты

http://i056.radikal.ru/1605/79/7a414d1f8c61t.jpg http://s019.radikal.ru/i624/1605/88/22454c96acdft.jpg
http://s017.radikal.ru/i443/1605/58/62a671ee39adt.jpg http://s018.radikal.ru/i512/1605/bd/3b185d1580e6t.jpg
http://s019.radikal.ru/i642/1605/00/b5107399a1bbt.jpg http://s018.radikal.ru/i504/1605/db/65fd2796194ft.jpg
http://s020.radikal.ru/i723/1605/03/fa93b5506525t.jpg http://s017.radikal.ru/i429/1605/96/9d837b5b16d0t.jpg
http://s018.radikal.ru/i523/1605/22/63a9c7dcb506t.jpg http://i075.radikal.ru/1605/c2/8e0e7d0ef392t.jpg
.:Angel:. 181.90 GB 1 3 0 2016-08-28 12:47:27 1
Сорвиголова / Daredevil.S01.2160p.NF.WEBRip
Иностранные сериалы
http://img.pslan.com/uploads/6f0c9e1279b612628a98092d62a21b17.jpg

Информация о сериале

http://img.pslan.com/uploads/60efe3650a0cb3b71ac8ba5bdeb4867c.jpg
Название: Сорвиголова (1 сезон: 1-13 серии из 13)
Оригинальное название: Daredevil
Жанр: фантастика, боевик
Страна: США, ABC Television Studio, Marvel Entertainment, Walt Disney Company
Год выпуска: 2015
Режиссер: Фил Абрахам, Стивен С. ДеНайт, Кен Джиротти
В ролях: Чарли Кокс, Дебора Энн Уолл, Элден Хенсон, Розарио Доусон, Винсент Д`Онофрио, Айелет Зурер, Боб Гантон, Тоби Мур, Вонди Куртис-Холл, Роб Морган

О фильме: Мэтт Мердок отличный специалист, но в результате несчастного случае он потерял зрение еще в юном возрасте. Как известно, люди, потерявшие какой-либо орган чувств, усиливают все остальные рефлексы в несколько раз. Именно поэтому, лишенный зрения Мэрдок отлично чувствует и слышит все происходящее вокруг. Он решает посвятить свою жизнь борьбе с преступностью. Теперь он с утра и до вечера - успешный адвокат, а ночью превращается в неуловимого мстителя в маске по прозвищу Сорвиголова! Ночной город может спасть спокойно, когда на улицах города вершит правосудие этот человек, способный остановить любого злодея!
Знаете ли вы, что...

• В основе сериала лежит комикс Фрэнка Миллера «Человек без страха» (The Man Without Fear).
• События сериала развиваются в кинематографической вселенной Marvel.
• Майкл С. Холл рассматривался на роль Сорвиголовы.
• Создатели сериала отметили, что источником вдохновения для них были криминальные фильмы «Французский связной» (1971) и «Таксист» (1976). Они хотели преподнести зрителю сериал в первую очередь как криминальную драму, а уже во вторую — как шоу о супергерое.
• Продюсер Джо Куэсада хотел, чтобы Чарли Кокс сыграл роль Сорвиголовы еще до того момента, когда студия Marvel вернула себе права на этого персонажа.
• Изначально Дрю Годдард был нанят на должность исполнительного продюсера для первого сезона сериала, но он покинул проект, поскольку получил место режиссера в полнометражном фильме студии Marvel «Зловещая шестерка» (2016). В итоге в сериале его место досталось Стивену С. ДеНайту.
• Хотя красный костюм Сорвиголовы широко известен, оригинальный костюм из комиксов был желто-коричневым.
• Еще в 1983 году канал ABC планировал снять сериал «Сорвиголова». Стёрлинг Силлифант даже написал сценарий к пилотному эпизоду, однако он так и не был показан по телевидению.
• Во второй серии первого сезона отец главного героя встречается на боксерском ринге в судьбоносном поединке с противником по фамилии Крил. На плакатах, анонсирующих этот бой, можно увидеть полное имя противника: Carl «Crusher» Creel. Это имя принадлежит суперзлодею из комиксов Marvel по прозвищу Поглотитель. Данный персонаж также присутствует лично в первых двух сериях второго сезона другого сериала, относящегося к кинематографической вселенной Marvel - «Агенты Щ.И.Т.» (2013), где упоминается, что в прошлом он был боксером.
• В сериале бандиты, устраивающие для отца Мэтта, Джека «Бойца» Мердока заказные бои, требуют чтобы Джек проиграл бой с боксером Криллом в 5-м раунде, хотя в комиксах Джек должен был упасть в 4-м раунде.
• Режиссер Джосс Уидон, активно настаивал чтобы Сорвиголова, в кинематографической вселенной MARVEL, изначально был полнометражным фильмом, а не сериалом. Однако в последствии признал, что некоторые комиксы действительно больше подходят под формат сериалов.

Ошибки в сериале

•На протяжении сериала, при показе панорамы Манхэттена, можно заметить здание MetLife. Присутствие здания является сюжетной ошибкой, поскольку на месте здания должна быть расположена Башня Мстителей (Avengers Tower), ранее именуемая Башней Старка (Stark Tower). По сюжету Кинематографической вселенной, Старк купил здание MetLife и перестроил его в башню.

Награды

https://st.kp.yandex.net/images/award-sag-small-no.jpg
Премия Гильдии актеров, 2016 год

Номинации (1):
                  Лучший каскадерский состав в телевизионном сериале

Содержание

Episode 1: Into the Ring / На ринге
Episode 2: Cut Man / Истерзанный
Episode 3: Rabbit in a Snowstorm
Episode 4: In the Blood / В крови
Episode 5: World on Fire / Мир в огне
Episode 6: Condemned / Приговоренные
Episode 7: Stick / Стик
Episode 8: Shadows in the Glass / Тени на стекле
Episode 9: Speak of the Devil / Помяни дьявола
Episode 10: Nelson v. Murdock / Нельсон против Мёрдока
Episode 11: The Path of the Righteous / Путь праведника
Episode 12: The Ones We Leave Behind / Оставленные позади
Episode 13: Daredevil / Сорвиголова

Качество: 2160p WEBRip [Netflix]
Видео: AVC, 3840x2160, ~32-42 мб/с

Файл

Прoдолжительность: 13 x ~ 00:53:00

Аудио:
русский: (АС3, 6 ch, 384 кб/с) | Профессиональный (многоголосый), Jaskier
русский: (АС3, 6 ch, 384 кб/с) | Профессиональный (двухголосый), NewStudio
русский: (АС3, 6 ch, 384 кб/с) | Профессиональный (многоголосый), LostFilm
русский: (АС3, 6 ch, 384 кб/с) | Профессиональный (многоголосый), Baibako
английский: (АС3, 6 ch, 640 кб/с)

Субтитры: Russian (Notabenoid), English

MediaInfo

General
Unique ID                   : 196520326122105140118671881563304530869 (0x93D87025BE83B20FB1EF1718D87E93B5)
Complete name               : D:\Daredevil.S01E01.2160p.NF.WEBRip.4xRus.Eng.ULTRAHDCLUB.mkv
Format                      : Matroska
Format version              : Version 4 / Version 2
File size                   : 14.9 GiB
Duration                    : 52mn 50s
Overall bit rate            : 40.3 Mbps
Movie name                  : Daredevil - Season 1, Episode 1: Into the Ring (2015) - Release for ULTRAHDCLUB
Encoded date                : UTC 2015-10-11 10:00:24
Writing application         : mkvmerge v8.3.0 ('Over the Horizon') 64bit
Writing library             : libebml v1.3.1 + libmatroska v1.4.2
DURATION                    : 00:51:06.467000000
NUMBER_OF_FRAMES            : 643
NUMBER_OF_BYTES             : 40736
_STATISTICS_WRITING_APP     : mkvmerge v8.3.0 ('Over the Horizon') 64bit
_STATISTICS_WRITING_DATE_UT : 2015-10-11 10:00:24
_STATISTICS_TAGS            : BPS DURATION NUMBER_OF_FRAMES NUMBER_OF_BYTES

Video
ID                          : 1
Format                      : AVC
Format/Info                 : Advanced Video Codec
Format profile              : High@L5.1
Format settings, CABAC      : Yes
Format settings, ReFrames   : 5 frames
Codec ID                    : V_MPEG4/ISO/AVC
Duration                    : 52mn 50s
Bit rate                    : 37.4 Mbps
Width                       : 3 840 pixels
Height                      : 2 160 pixels
Display aspect ratio        : 16:9
Frame rate mode             : Constant
Frame rate                  : 23.976 fps
Color space                 : YUV
Chroma subsampling          : 4:2:0
Bit depth                   : 8 bits
Scan type                   : Progressive
Bits/(Pixel*Frame)          : 0.188
Stream size                 : 13.8 GiB (93%)
Title                       : Daredevil - Season 1, Episode 1: Into the Ring (2015) - Release for ULTRAHDCLUB
Writing library             : x264 core 148 r2597 e86f3a1
Encoding settings           : cabac=1 / ref=5 / deblock=1:-1:-1 / analyse=0x3:0x133 / me=umh / subme=10 / psy=1 / psy_rd=1.00:0.15 / mixed_ref=1 / me_range=24 / chroma_me=1 / trellis=2 / 8x8dct=1 / cqm=0 / deadzone=21,11 / fast_pskip=0 / chroma_qp_offset=-3 / threads=24 / lookahead_threads=4 / sliced_threads=0 / nr=0 / decimate=0 / interlaced=0 / bluray_compat=0 / constrained_intra=0 / bframes=8 / b_pyramid=2 / b_adapt=2 / b_bias=0 / direct=3 / weightb=1 / open_gop=0 / weightp=2 / keyint=250 / keyint_min=23 / scenecut=40 / intra_refresh=0 / rc_lookahead=60 / rc=crf / mbtree=1 / crf=18.0 / qcomp=0.60 / qpmin=0 / qpmax=69 / qpstep=4 / ip_ratio=1.40 / aq=2:0.90
Language                    : English
Default                     : Yes
Forced                      : No
Color range                 : Limited
Color primaries             : BT.709
Transfer characteristics    : BT.709
Matrix coefficients         : BT.709

Audio #1
ID                          : 2
Format                      : AC-3
Format/Info                 : Audio Coding 3
Mode extension              : CM (complete main)
Format settings, Endianness : Big
Codec ID                    : A_AC3
Duration                    : 52mn 50s
Bit rate mode               : Constant
Bit rate                    : 384 Kbps
Channel(s)                  : 6 channels
Channel positions           : Front: L C R, Side: L R, LFE
Sampling rate               : 48.0 KHz
Compression mode            : Lossy
Delay relative to video     : 24ms
Stream size                 : 145 MiB (1%)
Title                       : AC3 5.1 @ 384 kbps - MVO, Jaskier
Language                    : Russian
Default                     : Yes
Forced                      : No

Audio #2
ID                          : 3
Format                      : AC-3
Format/Info                 : Audio Coding 3
Mode extension              : CM (complete main)
Format settings, Endianness : Big
Codec ID                    : A_AC3
Duration                    : 52mn 50s
Bit rate mode               : Constant
Bit rate                    : 384 Kbps
Channel(s)                  : 6 channels
Channel positions           : Front: L C R, Side: L R, LFE
Sampling rate               : 48.0 KHz
Compression mode            : Lossy
Delay relative to video     : 24ms
Stream size                 : 145 MiB (1%)
Title                       : AC3 5.1 @ 384 kbps - DVO, NewStudio
Language                    : Russian
Default                     : No
Forced                      : No

Audio #3
ID                          : 4
Format                      : AC-3
Format/Info                 : Audio Coding 3
Mode extension              : CM (complete main)
Format settings, Endianness : Big
Codec ID                    : A_AC3
Duration                    : 52mn 50s
Bit rate mode               : Constant
Bit rate                    : 384 Kbps
Channel(s)                  : 6 channels
Channel positions           : Front: L C R, Side: L R, LFE
Sampling rate               : 48.0 KHz
Compression mode            : Lossy
Delay relative to video     : 24ms
Stream size                 : 145 MiB (1%)
Title                       : AC3 5.1 @ 384 kbps - MVO, LostFilm
Language                    : Russian
Default                     : No
Forced                      : No

Audio #4
ID                          : 5
Format                      : AC-3
Format/Info                 : Audio Coding 3
Mode extension              : CM (complete main)
Format settings, Endianness : Big
Codec ID                    : A_AC3
Duration                    : 52mn 50s
Bit rate mode               : Constant
Bit rate                    : 384 Kbps
Channel(s)                  : 6 channels
Channel positions           : Front: L C R, Side: L R, LFE
Sampling rate               : 48.0 KHz
Compression mode            : Lossy
Delay relative to video     : 24ms
Stream size                 : 145 MiB (1%)
Title                       : AC3 5.1 @ 384 kbps - MVO, BaibaKo
Language                    : Russian
Default                     : No
Forced                      : No

Audio #5
ID                          : 6
Format                      : AC-3
Format/Info                 : Audio Coding 3
Mode extension              : CM (complete main)
Format settings, Endianness : Big
Codec ID                    : A_AC3
Duration                    : 52mn 50s
Bit rate mode               : Constant
Bit rate                    : 640 Kbps
Channel(s)                  : 6 channels
Channel positions           : Front: L C R, Side: L R, LFE
Sampling rate               : 48.0 KHz
Compression mode            : Lossy
Stream size                 : 242 MiB (2%)
Title                       : AC3 5.1 @ 640 kbps
Language                    : English
Default                     : No
Forced                      : No

Text #1
ID                          : 7
Format                      : UTF-8
Codec ID                    : S_TEXT/UTF8
Codec ID/Info               : UTF-8 Plain Text
Title                       : Notabenoid
Language                    : Russian
Default                     : No
Forced                      : No

Text #2
ID                          : 8
Format                      : UTF-8
Codec ID                    : S_TEXT/UTF8
Codec ID/Info               : UTF-8 Plain Text
Language                    : English
Default                     : No
Forced                      : No

http://img.pslan.com/uploads/0b7fbb7d400f73bcfd7c2e22ad360565.gif

Скриншоты

http://s008.radikal.ru/i306/1510/c2/b27f8015f361t.jpg
http://s017.radikal.ru/i426/1510/07/7ced160ed72bt.jpg
http://s019.radikal.ru/i629/1510/54/c28dbcc04cf3t.jpg
http://s017.radikal.ru/i412/1510/e4/2699e9592cb8t.jpg
.:Angel:. 203.01 GB 1 2 0 2016-08-28 10:53:33 1
Бен-Гур / Ben-Hur (2016) CAMRip | L
Иностранное кино
Информация о фильме
Название: Бен-Гур
Оригинальное название: Ben-Hur
Год выхода: 2016
Жанр: драма, приключения, история
Страна: http://img.pslan.com/uploads/910fc24a162cd88b7ac6985f6c54956d.gif США | Paramount Pictures, Metro-Goldwyn-Mayer (MGM), LightWorkers Media
Режиссер: Тимур Бекмамбетов
В ролях: Джек Хьюстон, Тоби Кеббелл, Родриго Санторо, Назанин Бониади, Айелет Зурер, Йохан Филип Асбек, София Блэк-Д’Элиа, Морган Фриман

Описание: История Бен-Гура, потомка знатного иудейского рода, который был предан своим лучшим другом-римлянином. Проведя много лет в рабстве на римских галерах, Бен-Гур в итоге получает возможность вернуться на родину и отомстить обидчику...


http://www.kinopoisk.ru/rating/731744.gif  http://imdb.snick.ru/ratefor/03/tt2638144.png  http://img.pslan.com/uploads/d6b9f3781ade581b34d7d488d0493aae.gif
  «Брат против брата. Раб против империи»  




ziher_ck 1.46 GB 5 1 16 2016-08-28 10:42:52 1
[p] Кровный отец / Blood Father (2016) 1080p WEB-DLRip | L
Иностранное кино HD-VIDEO
Информация о фильме

Название: Кровный отец
Оригинальное название: Blood Father
Жанр: боевик, триллер
Страна: Франция
Год выпуска: 2016
Режиссер: Жан-Франсуа Рише
В ролях: Мэл Гибсон, Эрин Мориарти, Диего Луна, Майкл Паркс, Уильям Х. Мэйси, Мигель Сандовал, Дейл Дикки, Ричард Кебрал, Дэниэл Монкада, Райан Дорси

О фильме: Бывший заключенный, раньше не участвовавший в воспитании дочери, узнав о том, что его дочь преследуют наркоторговцы и жаждут ее смерти, решил помочь ей с проблемами.

Присутствует РЕКЛАМА!!!

1080p WEB-DLRip
Любительское (многоголосое) [СПД]


Файл

Прoдолжительность: 01:28:11
Видео: MKV, 4216 кб/с, 1912x792
Аудио: русский (AC3, 2 ch, 384 кб/с)

http://img.pslan.com/uploads/af07761f1016c90ed4ffdcdb388b3325.gif
.:Angel:. 2.84 GB 38 7 276 2016-08-28 08:21:12 2
[p] Кровный отец / Blood Father (2016) WEB-DLRip | L
Иностранное кино
Информация о фильме

Название: Кровный отец
Оригинальное название: Blood Father
Жанр: боевик, триллер
Страна: Франция
Год выпуска: 2016
Режиссер: Жан-Франсуа Рише
В ролях: Мэл Гибсон, Эрин Мориарти, Диего Луна, Майкл Паркс, Уильям Х. Мэйси, Мигель Сандовал, Дейл Дикки, Ричард Кебрал, Дэниэл Монкада, Райан Дорси

О фильме: Бывший заключенный, раньше не участвовавший в воспитании дочери, узнав о том, что его дочь преследуют наркоторговцы и жаждут ее смерти, решил помочь ей с проблемами.

Присутствует РЕКЛАМА!!!

WEB-DLRip
Любительское (многоголосое) [СПД]


Файл

Прoдолжительность: 01:28:11
Видео: AVI, 1825 кб/с, 720x304
Аудио: русский (AC3, 2 ch, 384 кб/с)

http://img.pslan.com/uploads/af07761f1016c90ed4ffdcdb388b3325.gif
.:Angel:. 1.37 GB 10 1 89 2016-08-28 08:18:38 1
Мистериум. Тьма в бутылке / Flaskepost fra P (2016) BDRip 720p | L
Иностранное кино HD-VIDEO
Информация о фильме
Название: Мистериум. Тьма в бутылке
Оригинальное название: Flaskepost fra P
Жанр: Триллер, криминал, детектив, драма, экранизация
Страна: Дания, Германия, Швеция, Норвегия / Det Danske Filminstitut, Film i Väst, TV2 Danmark
Год выпуска: 2016
Режиссер: Ганс Петтер Моланд
В ролях: Николай Ли Каас, Фарес Фарес, Пол Сверре Валхейм Хаген, Якоб Ульрик Ломанн, Джохэнн Луиз Шмидт, Якоб Офтебро, Сигне Анастассиа Маннов, Сёрен Пильмарк, Михаэль Броструп

О фильме: В департаменте полиции Копенгагена существует особый отдел Q, который создали для раскрытия самых необычных и запутанных дел. В отделе работают детективы Карл Мёрке и Асад. В этот раз в отдел обращаются со странной находкой – в Шотландии случайно выловили запечатанную бутылку с призывом о помощи, написанную на датском языке, да ещё и кровью. К сожалению, время и соленая вода не пощадили текст, но сыщики берутся за расшифровку, надеясь пролить свет на тайну этого послания. Постепенно перед ними начинает открываться жуткая история, которая, судя по всему, ещё не завершилась. В результате детективы выходят на след убийцы-психопата и раскрывают жуткую историю похищенных детей, об исчезновении которых никто не заявлял.

RudiRudi 4.86 GB 8 2 78 2016-08-28 08:10:11 0
Всего 56020 на 5602 страницах по 10 на каждой странице.

Статистика торрента

Всего зарегистрировано: 793,258
Мужчины: 681,185
Женщины: 112,073
Сейчас онлайн: 78
Трафик: 569.495 ПB
Файлов: 157.676 TB
Скорость: 46.75 MB/с из 734.08 MB/с
Торрентов: 56,031
Мертвых: 7
Раздающих:   15,034
Качающих:        1,459
Пиров: 16,493

О Торренте

Сайт содержит каталог фильмов, сериалов, мультфильмов и других файлов. Копирование информации без указания явной ссылки на наш сайт запрещено. Скачать торрент файлы разрешено только для личных целей.

Интернет ресурс www.pslan.com не содержит электронные версии фильмов и сериалов, а занимается лишь сбором и каталогизацией хэшей файлов, далее торрент файлов, найденных в свободном доступе в сети Интернет. С нашего торрент трекера вы можете скачать фильмы бесплатно только для ознакомительных целей. Администрация торент трекера не несет ответственности за содержимое скачиваемых фильмов, сериалов, мультфильмов или аниме. Администрация не проверяет торренты файлов на соответствие заявленным характеристикам. Все торренты, размещенные на нашем ресурсе, найдены в сети Интернет в свободном доступе. Для того, чтобы скачать торрент или какие либо другие файлы, Вам не нужно платить деньги. Мы не зарабатываем деньги на продаже фильмов и сериалов!

Описание технологи торрент

Торрент | torrent - это сетевой протокол для обмена файлами. Торент файлы разбиваются на небольшие части и в таком виде передаются по сети. Торрент клиенты | torrents client скачивают эти части и затем собирают у себя файл воедино.

Допустим, вы решили скачать у нас фильм бесплатно. Находите страницу с его описанием и загружаете торрент фильма в клиент, который соединяется с торрент трекером | torrent tracker, передает ему информацию о своем IP адресе и хэш сумму файла, который требуется скачать. Трекер отправляет клиенту IP адреса других пользователей, также раздающих или качающих торренты. В процессе скачивания клиент регулярно общается с сервером, сообщая информацию о скачивании и получая обновленный список IP адресов.

Torrents клиенты передают информацию о фильмах, которые вы скачиваете, напрямую между собой без участия торрент трекера. Трекер только собирает данные с торент клиентов о ходе процесса, подключенных пользователях и другую необходимую информацию.

И немного о том, как вам с легкостью скачать фильмы бесплатно, быстро, без смс и других хлопот Основными разделами на сайте являются:

Репертуар от «Новинки кино» до «популярная ира» найдёте на сайте, Допустим, вам захотелось скачать бесплатно пару фильмов боевиков в хорошем качестве и даже фильма в HDTV качестве, или же скачать игры. Вы можете воспользоватся нашим поиском.

Всем приятного просмотра! Напоследок еще раз обращаю ваше внимание, что на сайте можно скачать фильмы игры музыку файлы - бесплатно.


vkontakte Last.fm Twitter Одноклассники P.S.Lan
reklama