Привет, друг!!!

  • Если что-то не получается
  • Алексей (Skype)
  • katafalk555
  • Помощь по форуму
  • 473868046 Женя
  • Общие вопросы
  • Татьяна (QIP)
  • User ID: tarantinka3
загрузка...

Добро пожаловать в Зомбилэнд / Zombieland (2009) 1080p BDRip

Иностранное кино HD-VIDEOСкачать: Добро пожаловать в Зомбилэнд / Zombieland (2009) 1080p BDRip

Проверен
Рейтинг1000
              
Обложка
Добро пожаловать в Зомбилэнд / Zombieland (2009) 1080p BDRip
Описание
Информация о фильме
Название: Добро пожаловать в Зомбилэнд
Оригинальное название: Zombieland
Жанр: боевик, комедия, ужасы
Страна: США
Год выпуска: 2009
Режиссер: Рубен Фляйшер
В ролях: Вуди Харрельсон, Джесси Айзенберг, Эмма Стоун, Эбигейл Бреслин, Эмбер Хёрд, Билл Мюррэй, Дерек Граф, Майк Уайт, Джейкоб Дж. Экинс, Хантер Элдридж

О фильме: После того, как США были разорены в результате нашествия зомби, от населения остаётся небольшая группа выживших, которая скитается по стране от побережья к побережью, сражаясь с живыми мертвецами. Однажды они останавливаются в парке развлечений, надеясь на то, что там они будут в безопасности.

http://i.piccy.info/i4/28/55/3634ef2afdf1d0ea082aa46dc625.gif     http://i.piccy.info/i4/d6/c5/50b37ac6249f73e0949ee125f775.gif

Продолжительность: 01:27:42
Качество: BDRip 1080p
Видео
Кодек: H.264
Размер кадра: 1920x800
Битрейт: 9196 кб/с

Звук 1: Русский (Профессиональный дубляж), AC3 5.1, 48 KHz, 448 кб/с
Звук 2: Английский (Оригинал), DTS 5.1, 48 KHz, 1536 кб/с
Субтитры: Русские (отдельно), английские

Доп. информация:
На ДВД и, как оказалось, на БД, после титров есть небольшая сценка на 44 секунды. В 720p сцен-риперы, видимо, забыли её рипнуть. Здесь (в 1080p) ситуация получше - видео этой сценки они рипнули, однако звук оставили старый. Таким образом, на русском сценка со звуком, а на английском - без.
Для тех, кто в танке - речь идёт о последних 44 секундах фильма, после титров. В остальном - всё ок.

MediaInfo

General
Complete name : Zombieland.2009.BD.Rip.1080p.h264.Rus.Eng.mkv
Format : Matroska
File size : 6.82 GiB
Duration : 1h 27mn
Overall bit rate : 11.1 Mbps
Encoded date : UTC 2010-01-06 18:08:30
Writing application : mkvmerge v3.0.0 ('Hang up your Hang-Ups') built on Dec 12 2009 15:20:35
Writing library : libebml v0.7.9 + libmatroska v0.8.1

Video
ID : 1
Format : AVC
Format/Info : Advanced Video Codec
Format profile : High@L4.1
Format settings, CABAC : Yes
Format settings, ReFrames : 5 frames
Muxing mode : Container profile=Unknown@4.1
Codec ID : V_MPEG4/ISO/AVC
Duration : 1h 27mn
Bit rate : 8 961 Kbps
Nominal bit rate : 9 196 Kbps
Width : 1 920 pixels
Height : 800 pixels
Display aspect ratio : 2.40:1
Frame rate : 23.976 fps
Resolution : 8 bits
Colorimetry : 4:2:0
Scan type : Progressive
Bits/(Pixel*Frame) : 0.243
Stream size : 5.48 GiB (80%)
Writing library : x264 core 80 r1376 3feaec2
Encoding settings : cabac=1 / ref=5 / deblock=1:0:0 / analyse=0x3:0x133 / me=umh / subme=7 / psy=1 / psy_rd=1.0:0.0 / mixed_ref=1 / me_range=16 / chroma_me=1 / trellis=1 / 8x8dct=1 / cqm=0 / deadzone=21,11 / fast_pskip=0 / chroma_qp_offset=-2 / threads=6 / sliced_threads=0 / nr=0 / decimate=1 / mbaff=0 / constrained_intra=0 / bframes=3 / b_pyramid=0 / b_adapt=1 / b_bias=0 / direct=1 / wpredb=1 / wpredp=2 / keyint=250 / keyint_min=25 / scenecut=40 / rc_lookahead=40 / rc=2pass / mbtree=1 / bitrate=9196 / ratetol=1.0 / qcomp=0.60 / qpmin=10 / qpmax=51 / qpstep=4 / cplxblur=20.0 / qblur=0.5 / ip_ratio=1.40 / aq=1:1.00
Language : English

Audio #1
ID : 2
Format : AC-3
Format/Info : Audio Coding 3
Codec ID : A_AC3
Duration : 1h 27mn
Bit rate mode : Constant
Bit rate : 448 Kbps
Channel(s) : 6 channels
Channel positions : Front: L C R, Surround: L R, LFE
Sampling rate : 48.0 KHz
Stream size : 281 MiB (4%)
Title : AC3 5.1 448 kbps
Language : Russian

Audio #2
ID : 3
Format : DTS
Format/Info : Digital Theater Systems
Codec ID : A_DTS
Duration : 1h 27mn
Bit rate mode : Constant
Bit rate : 1 510 Kbps
Channel(s) : 6 channels
Channel positions : Front: L C R, Surround: L R, LFE
Sampling rate : 48.0 KHz
Resolution : 24 bits
Stream size : 947 MiB (14%)
Title : DTS 5.1 1536 kbps
Language : English

Text
ID : 4
Format : UTF-8
Codec ID : S_TEXT/UTF8
Codec ID/Info : UTF-8 Plain Text
Language : English

Рип от CROSSBOW
Скриншоты[Скриншот №1] - Добро пожаловать в Зомбилэнд / Zombieland (2009) 1080p BDRip  [Скриншот №2] - Добро пожаловать в Зомбилэнд / Zombieland (2009) 1080p BDRip  [Скриншот №3] - Добро пожаловать в Зомбилэнд / Zombieland (2009) 1080p BDRip
РаздающийПоследний раз был здесь 275d 19:41:21 назад
Размер6.82 GB (7,328,056,278 байт)
Добавлен2010-01-15 01:33:08
Скачан98 раз
BONUSDownload на 70% не учитывается!

место под вашу рекламу

Комментарии

  1. 1
    Не в сети DarkAngel300 - Super User (2010-01-15 03:16:49) upload 34.262 TB, download 3.873 TB, 8.85
    Нормальная комедия=))))

    НЕ подумайте что ето Ужас=)
  2. 2
    Не в сети TaraSikan - Опытный пользователь (2010-01-15 21:36:51) upload 10.129 TB, download 2.533 TB, 4.00
    да,кул фильм))
  3. 3
    Не в сети pointofview - Super User (2010-01-16 16:59:33) upload 4.767 TB, download 503.20 GB, 9.70
    суперовий фільм!!
  4. 4
    Не в сети SERg - Super User (2010-01-27 22:17:41) upload 305.59 GB, download 39.53 GB, 7.73
    фильм отличный и качество огонь!!!
  5. 5
    Не в сети xxxTRONxxx - Пользователь (2010-04-25 15:42:40) upload 1.235 TB, download 1.218 TB, 1.01
    КАЛАШ МНЕ В ЗАД!!СИД ТІ КУДА ПОДЕВАЛСЯ ТО!?
Всего 5 на 1 страницах по 10 на каждой странице.

vkontakte Last.fm Twitter Одноклассники P.S.Lan
reklama




Загрузка...