Привет, друг!!!

  • Если что-то не получается
  • Алексей (Skype)
  • katafalk555
  • Помощь по форуму
  • 473868046 Женя
  • Общие вопросы
  • Татьяна (QIP)
  • User ID: tarantinka3
загрузка...

Друга Ріка - Дискография (2000-2008) FLAC (image+.cue), lossless

МузыкаСкачать: Друга Ріка - Дискография (2000-2008) FLAC (image+.cue), lossless

Проверен
Рейтинг0
              
Обложка
Друга Ріка - Дискография (2000-2008) FLAC (image+.cue), lossless
Описание
Исполнитель: Друга Ріка
Альбом: Дискография
Год выпуска: 2000 - 2008
Жанр: рок, софт-рок, поп

Треклист:
Я є (2000)

http://i.piccy.kiev.ua/i2/32/de/3e1dc86b20f3f997ebe0da99b3b6.jpeg

01. Я є [3:40]
02. Впусти мене [4:26]
03. 000 Т.Б. [4:18]
04. Вічна, жива [3:55]
05. Там де ти [5:27]
06. Знаєш [3:54]
07. Чого же ти ждеш [3:08]
08. Зазнайко [2:55]
09. Інколи [4:12]
10. Сни [4:43]
11. Не моя земля [4:00]

Формат: FLAC
Бітрейт аудіо: 1200 кбит/с
Тривалість: 00:49:07

Я є.log

Exact Audio Copy V0.99 prebeta 4 from 23. January 2008

EAC extraction logfile from 15. June 2008, 12:20

Unknown Artist / Unknown Title

Used drive : _NEC DVD_RW ND-3570A Adapter: 0 ID: 2

Read mode : Secure
Utilize accurate stream : Yes
Defeat audio cache : Yes
Make use of C2 pointers : No

Read offset correction : 48
Overread into Lead-In and Lead-Out : No
Fill up missing offset samples with silence : Yes
Delete leading and trailing silent blocks : No
Null samples used in CRC calculations : Yes
Used interface : Native Win32 interface for Win NT & 2000

Used output format : Internal WAV Routines
Sample format : 44.100 Hz; 16 Bit; Stereo

TOC of the extracted CD

Track | Start | Length | Start sector | End sector
---------------------------------------------------------
1 | 0:00.00 | 3:40.58 | 0 | 16557
2 | 3:40.58 | 4:26.65 | 16558 | 36572
3 | 8:07.48 | 4:18.57 | 36573 | 55979
4 | 12:26.30 | 3:55.56 | 55980 | 73660
5 | 16:22.11 | 5:27.39 | 73661 | 98224
6 | 21:49.50 | 3:54.23 | 98225 | 115797
7 | 25:43.73 | 3:08.53 | 115798 | 129950
8 | 28:52.51 | 2:55.50 | 129951 | 143125
9 | 31:48.26 | 4:12.59 | 143126 | 162084
10 | 36:01.10 | 4:43.63 | 162085 | 183372
11 | 40:44.73 | 4:00.49 | 183373 | 201421
12 | 44:45.47 | 4:29.13 | 201422 | 221609
13 | 51:46.60 | 3:42.72 | 233010 | 249731

Range status and errors

Selected range

Filename G:losslessja jeDruga_Rika- Ja_e.wav

Peak level 100.0 %
Range quality 100.0 %
Copy CRC F2F6CA14
Copy OK

No errors occurred

End of status report

------------------------------------------------------------

Exact Audio Copy V0.99 prebeta 4 from 23. January 2008

EAC extraction logfile from 15. June 2008, 12:20

Unknown Artist / Unknown Title

Used drive : _NEC DVD_RW ND-3570A Adapter: 0 ID: 2

Read mode : Secure
Utilize accurate stream : Yes
Defeat audio cache : Yes
Make use of C2 pointers : No

Read offset correction : 48
Overread into Lead-In and Lead-Out : No
Fill up missing offset samples with silence : Yes
Delete leading and trailing silent blocks : No
Null samples used in CRC calculations : Yes
Used interface : Native Win32 interface for Win NT & 2000

Used output format : Internal WAV Routines
Sample format : 44.100 Hz; 16 Bit; Stereo

TOC of the extracted CD

Track | Start | Length | Start sector | End sector
---------------------------------------------------------
1 | 0:00.00 | 3:40.58 | 0 | 16557
2 | 3:40.58 | 4:26.65 | 16558 | 36572
3 | 8:07.48 | 4:18.57 | 36573 | 55979
4 | 12:26.30 | 3:55.56 | 55980 | 73660
5 | 16:22.11 | 5:27.39 | 73661 | 98224
6 | 21:49.50 | 3:54.23 | 98225 | 115797
7 | 25:43.73 | 3:08.53 | 115798 | 129950
8 | 28:52.51 | 2:55.50 | 129951 | 143125
9 | 31:48.26 | 4:12.59 | 143126 | 162084
10 | 36:01.10 | 4:43.63 | 162085 | 183372
11 | 40:44.73 | 4:00.49 | 183373 | 201421
12 | 44:45.47 | 4:29.13 | 201422 | 221609
13 | 51:46.60 | 3:42.72 | 233010 | 249731

Range status and errors

Selected range

Filename G:losslessja jeDruga_Rika- Ja_e.wav

Peak level 100.0 %
Range quality 100.0 %
Copy CRC F2F6CA14
Copy OK

No errors occurred

End of status report

Два (2003)

http://i.piccy.kiev.ua/i2/50/55/8a6dc754765787563e155ff0c4f5.jpeg

01. Математика [3:27]
02. Алло [3:53]
03. Вже не сам [3:24]
04. Новий день [4:14]
05. Я чую тебе тут [4:44]
06. Шансон [3:38]
07. Нічий [4:01]
08. Це love-fun [3:59]
09. Радіохіт [3:10]
10. Оксана [3:00]
11. Математика (electro) [3:03]

Формат: FLAC
Битрейт аудио: 1200 кбит/с
Продолжительность: 00:40:33

Два.log

Exact Audio Copy V0.99 prebeta 4 from 23. January 2008

EAC extraction logfile from 15. June 2008, 13:33

Unknown Artist / Unknown Title

Used drive : _NEC DVD_RW ND-3570A Adapter: 0 ID: 2

Read mode : Secure
Utilize accurate stream : Yes
Defeat audio cache : Yes
Make use of C2 pointers : No

Read offset correction : 48
Overread into Lead-In and Lead-Out : No
Fill up missing offset samples with silence : Yes
Delete leading and trailing silent blocks : No
Null samples used in CRC calculations : Yes
Used interface : Native Win32 interface for Win NT & 2000

Used output format : Internal WAV Routines
Sample format : 44.100 Hz; 16 Bit; Stereo

TOC of the extracted CD

Track | Start | Length | Start sector | End sector
---------------------------------------------------------
1 | 0:00.00 | 3:29.70 | 0 | 15744
2 | 3:29.70 | 3:55.05 | 15745 | 33374
3 | 7:25.00 | 3:26.20 | 33375 | 48844
4 | 10:51.20 | 4:16.10 | 48845 | 68054
5 | 15:07.30 | 4:46.18 | 68055 | 89522
6 | 19:53.48 | 3:40.42 | 89523 | 106064
7 | 23:34.15 | 4:03.18 | 106065 | 124307
8 | 27:37.33 | 4:01.14 | 124308 | 142396
9 | 31:38.47 | 3:14.57 | 142397 | 157003
10 | 34:53.29 | 3:02.66 | 157004 | 170719
11 | 37:56.20 | 3:03.12 | 170720 | 184456

Range status and errors

Selected range

Filename G:losslessdvaDruga_Rika- Dva.wav

Peak level 100.0 %
Range quality 100.0 %
Copy CRC A970DFCA
Copy OK

No errors occurred

End of status report

------------------------------------------------------------

Exact Audio Copy V0.99 prebeta 4 from 23. January 2008

EAC extraction logfile from 15. June 2008, 13:33

Unknown Artist / Unknown Title

Used drive : _NEC DVD_RW ND-3570A Adapter: 0 ID: 2

Read mode : Secure
Utilize accurate stream : Yes
Defeat audio cache : Yes
Make use of C2 pointers : No

Read offset correction : 48
Overread into Lead-In and Lead-Out : No
Fill up missing offset samples with silence : Yes
Delete leading and trailing silent blocks : No
Null samples used in CRC calculations : Yes
Used interface : Native Win32 interface for Win NT & 2000

Used output format : Internal WAV Routines
Sample format : 44.100 Hz; 16 Bit; Stereo

TOC of the extracted CD

Track | Start | Length | Start sector | End sector
---------------------------------------------------------
1 | 0:00.00 | 3:29.70 | 0 | 15744
2 | 3:29.70 | 3:55.05 | 15745 | 33374
3 | 7:25.00 | 3:26.20 | 33375 | 48844
4 | 10:51.20 | 4:16.10 | 48845 | 68054
5 | 15:07.30 | 4:46.18 | 68055 | 89522
6 | 19:53.48 | 3:40.42 | 89523 | 106064
7 | 23:34.15 | 4:03.18 | 106065 | 124307
8 | 27:37.33 | 4:01.14 | 124308 | 142396

9 | 31:38.47 | 3:14.57 | 142397 | 157003
10 | 34:53.29 | 3:02.66 | 157004 | 170719
11 | 37:56.20 | 3:03.12 | 170720 | 184456

Range status and errors

Selected range

Filename G:losslessdvaDruga_Rika- Dva.wav

Peak level 100.0 %
Range quality 100.0 %
Copy CRC A970DFCA
Copy OK

No errors occurred

End of status report

Рекорди (2005)

http://i.piccy.kiev.ua/i2/b1/47/1192946bda996526b2cd6748c0d5.jpeg

01. Сам собі острів [4:10]
02. Так мало тут тебе [3:28]
03. Спи до завтра [3:23]
04. П'ю з твоїх рук [4:14]
05. Секс на драйв [3:46]
06. Три хвилини [3:40]
07. Відчиняй [3:28]
08. Твої слова [3:14]
09. Не йди [4:11]
10. За що [3:45]
11. Падали [3:56]
12. Шоу [4:07]

Формат: FLAC
Битрейт аудио: 1200 кбит/с
Продолжительность: 00:45:22

Рекорди.log

Exact Audio Copy V0.99 prebeta 4 from 23. January 2008

EAC extraction logfile from 16. June 2008, 23:55

????? ???? / ???????

Used drive : _NEC DVD_RW ND-3570A Adapter: 0 ID: 2

Read mode : Secure
Utilize accurate stream : Yes
Defeat audio cache : Yes
Make use of C2 pointers : No

Read offset correction : 48
Overread into Lead-In and Lead-Out : No
Fill up missing offset samples with silence : Yes
Delete leading and trailing silent blocks : No
Null samples used in CRC calculations : Yes
Used interface : Native Win32 interface for Win NT & 2000

Used output format : Internal WAV Routines
Sample format : 44.100 Hz; 16 Bit; Stereo

TOC of the extracted CD

Track | Start | Length | Start sector | End sector
---------------------------------------------------------
1 | 0:00.00 | 4:12.10 | 0 | 18909
2 | 4:12.10 | 3:30.09 | 18910 | 34668
3 | 7:42.19 | 3:25.68 | 34669 | 50111
4 | 11:08.12 | 4:16.25 | 50112 | 69336
5 | 15:24.37 | 3:48.42 | 69337 | 86478
6 | 19:13.04 | 3:42.16 | 86479 | 103144
7 | 22:55.20 | 3:30.04 | 103145 | 118898
8 | 26:25.24 | 3:16.63 | 118899 | 133661
9 | 29:42.12 | 4:13.08 | 133662 | 152644
10 | 33:55.20 | 3:47.36 | 152645 | 169705
11 | 37:42.56 | 3:58.10 | 169706 | 187565
12 | 41:40.66 | 4:07.25 | 187566 | 206115

Range status and errors

Selected range

Filename G:lossless
ecordyDruga_Rika- Recordy.wav

Peak level 100.0 %
Range quality 100.0 %
Copy CRC B575C993
Copy OK

No errors occurred

End of status report

------------------------------------------------------------

Exact Audio Copy V0.99 prebeta 4 from 23. January 2008

EAC extraction logfile from 16. June 2008, 23:56

????? ???? / ???????

Used drive : _NEC DVD_RW ND-3570A Adapter: 0 ID: 2

Read mode : Secure
Utilize accurate stream : Yes
Defeat audio cache : Yes
Make use of C2 pointers : No

Read offset correction : 48
Overread into Lead-In and Lead-Out : No
Fill up missing offset samples with silence : Yes
Delete leading and trailing silent blocks : No
Null samples used in CRC calculations : Yes
Used interface : Native Win32 interface for Win NT & 2000

Used output format : Internal WAV Routines
Sample format : 44.100 Hz; 16 Bit; Stereo

TOC of the extracted CD

Track | Start | Length | Start sector | End sector
---------------------------------------------------------
1 | 0:00.00 | 4:12.10 | 0 | 18909
2 | 4:12.10 | 3:30.09 | 18910 | 34668
3 | 7:42.19 | 3:25.68 | 34669 | 50111
4 | 11:08.12 | 4:16.25 | 50112 | 69336
5 | 15:24.37 | 3:48.42 | 69337 | 86478
6 | 19:13.04 | 3:42.16 | 86479 | 103144
7 | 22:55.20 | 3:30.04 | 103145 | 118898
8 | 26:25.24 | 3:16.63 | 118899 | 133661
9 | 29:42.12 | 4:13.08 | 133662 | 152644
10 | 33:55.20 | 3:47.36 | 152645 | 169705
11 | 37:42.56 | 3:58.10 | 169706 | 187565
12 | 41:40.66 | 4:07.25 | 187566 | 206115

Range status and errors

Selected range

Filename G:lossless
ecordyDruga_Rika- Recordy.wav

Peak level 100.0 %
Range quality 100.0 %
Copy CRC B575C993
Copy OK

No errors occurred

End of status report

Dенніч (2006)

http://i.piccy.kiev.ua/i2/a0/ee/9f42f1f9a83b74562b6c637b32e0.jpeg

01. Dенніч [3:45]
02. П'ю з твоїх долонь [4:14]
03. Вже не сам [3:26]
04. Спи до завтра [3:23]
05. Алло [3:54]
06. Так мало тут тебе [3:29]
07. Математика [3:29]
08. Впусти мене [4:27]
09. Відчиняй [3:27]
10. Оксана [3:02]
11. Там де ти [5:27]
12. Шансон [3:40]
13. Три хвилини [3:44]

Формат: FLAC
Битрейт аудио: 1200 кбит/с
Продолжительность: 00:49:27

Dенніч.log

Exact Audio Copy V0.99 prebeta 4 from 23. January 2008

EAC extraction logfile from 17. June 2008, 0:30

????? ???? / D?????

Used drive : _NEC DVD_RW ND-3570A Adapter: 0 ID: 2

Read mode : Secure
Utilize accurate stream : Yes
Defeat audio cache : Yes
Make use of C2 pointers : No

Read offset correction : 48
Overread into Lead-In and Lead-Out : No
Fill up missing offset samples with silence : Yes
Delete leading and trailing silent blocks : No
Null samples used in CRC calculations : Yes
Used interface : Native Win32 interface for Win NT & 2000

Used output format : Internal WAV Routines
Sample format : 44.100 Hz; 16 Bit; Stereo

TOC of the extracted CD

Track | Start | Length | Start sector | End sector
---------------------------------------------------------
1 | 0:00.00 | 3:46.55 | 0 | 17004
2 | 3:46.55 | 4:15.25 | 17005 | 36154
3 | 8:02.05 | 3:27.14 | 36155 | 51693
4 | 11:29.19 | 3:24.37 | 51694 | 67030
5 | 14:53.56 | 3:55.50 | 67031 | 84705
6 | 18:49.31 | 3:30.43 | 84706 | 100498
7 | 22:19.74 | 3:30.16 | 100499 | 116264
8 | 25:50.15 | 4:28.00 | 116265 | 136364
9 | 30:18.15 | 3:28.58 | 136365 | 152022
10 | 33:46.73 | 3:03.09 | 152023 | 165756
11 | 36:50.07 | 5:28.17 | 165757 | 190373
12 | 42:18.24 | 3:41.48 | 190374 | 206996
13 | 45:59.72 | 3:44.22 | 206997 | 223818

Range status and errors

Selected range

Filename G:losslessDennichDruga_Rika- Dennich.wav

Peak level 97.7 %
Range quality 99.9 %
Copy CRC A15DA124
Copy OK

No errors occurred

End of status report

------------------------------------------------------------

Exact Audio Copy V0.99 prebeta 4 from 23. January 2008

EAC extraction logfile from 17. June 2008, 0:30

????? ???? / D?????

Used drive : _NEC DVD_RW ND-3570A Adapter: 0 ID: 2

Read mode : Secure
Utilize accurate stream : Yes
Defeat audio cache : Yes
Make use of C2 pointers : No

Read offset correction : 48
Overread into Lead-In and Lead-Out : No
Fill up missing offset samples with silence : Yes
Delete leading and trailing silent blocks : No
Null samples used in CRC calculations : Yes
Used interface : Native Win32 interface for Win NT & 2000

Used output format : Internal WAV Routines
Sample format : 44.100 Hz; 16 Bit; Stereo

TOC of the extracted CD

Track | Start | Length | Start sector | End sector
---------------------------------------------------------
1 | 0:00.00 | 3:46.55 | 0 | 17004
2 | 3:46.55 | 4:15.25 | 17005 | 36154
3 | 8:02.05 | 3:27.14 | 36155 | 51693
4 | 11:29.19 | 3:24.37 | 51694 | 67030
5 | 14:53.56 | 3:55.50 | 67031 | 84705
6 | 18:49.31 | 3:30.43 | 84706 | 100498
7 | 22:19.74 | 3:30.16 | 100499 | 116264
8 | 25:50.15 | 4:28.00 | 116265 | 136364
9 | 30:18.15 | 3:28.58 | 136365 | 152022
10 | 33:46.73 | 3:03.09 | 152023 | 165756
11 | 36:50.07 | 5:28.17 | 165757 | 190373
12 | 42:18.24 | 3:41.48 | 190374 | 206996
13 | 45:59.72 | 3:44.22 | 206997 | 223818

Range status and errors

Selected range

Filename G:losslessDennichDruga_Rika- Dennich.wav

Peak level 97.7 %
Range quality 99.9 %
Copy CRC A15DA124
Copy OK

No errors occurred

End of status report

Мода (2008)

http://i.piccy.kiev.ua/i2/8e/73/643e148c26685c0ba403b2b84e41.jpeg

01. Номер один [3:44]
02. Кінець світу [3:57]
03. Пропоную мир [3:32]
04. Дотик [4:17]
05. Космоzoo [4:17]
06. О' будь [5:01]
07. Мікрофони [3:34]
08. Dискомоdа [3:33]
09. Фурія [2:42]
10. Не треба [4:29]
11. Я полечу [4:14]

Формат: FLAC
Битрейт аудио: 1200 кбит/с
Продолжительность: 00:43:20

Мода.log

Exact Audio Copy V0.99 prebeta 4 from 23. January 2008

EAC extraction logfile from 17. June 2008, 1:06

Unknown Artist / Unknown Title

Used drive : _NEC DVD_RW ND-3570A Adapter: 0 ID: 2

Read mode : Secure
Utilize accurate stream : Yes
Defeat audio cache : Yes
Make use of C2 pointers : No

Read offset correction : 48
Overread into Lead-In and Lead-Out : No
Fill up missing offset samples with silence : Yes
Delete leading and trailing silent blocks : No
Null samples used in CRC calculations : Yes
Used interface : Native Win32 interface for Win NT & 2000

Used output format : Internal WAV Routines
Sample format : 44.100 Hz; 16 Bit; Stereo

TOC of the extracted CD

Track | Start | Length | Start sector | End sector
---------------------------------------------------------
1 | 0:00.00 | 3:46.38 | 0 | 16987
2 | 3:46.38 | 3:59.71 | 16988 | 34983
3 | 7:46.34 | 3:34.55 | 34984 | 51088
4 | 11:21.14 | 4:19.01 | 51089 | 70514
5 | 15:40.15 | 4:19.35 | 70515 | 89974
6 | 19:59.50 | 5:03.37 | 89975 | 112736
7 | 25:03.12 | 3:36.47 | 112737 | 128983
8 | 28:39.59 | 3:35.64 | 128984 | 145172
9 | 32:15.48 | 2:44.30 | 145173 | 157502
10 | 35:00.03 | 4:31.49 | 157503 | 177876
11 | 39:31.52 | 4:14.66 | 177877 | 196992

Range status and errors

Selected range

Filename Gruga_Rika-losslessModaDruga_Rika- Moda.wav

Peak level 100.0 %
Range quality 100.0 %
Copy CRC 85963F3F
Copy OK

No errors occurred

End of status report

------------------------------------------------------------

Exact Audio Copy V0.99 prebeta 4 from 23. January 2008

EAC extraction logfile from 17. June 2008, 1:06

Unknown Artist / Unknown Title

Used drive : _NEC DVD_RW ND-3570A Adapter: 0 ID: 2

Read mode : Secure
Utilize accurate stream : Yes
Defeat audio cache : Yes
Make use of C2 pointers : No

Read offset correction : 48
Overread into Lead-In and Lead-Out : No
Fill up missing offset samples with silence : Yes
Delete leading and trailing silent blocks : No
Null samples used in CRC calculations : Yes
Used interface : Native Win32 interface for Win NT & 2000

Used output format : Internal WAV Routines
Sample format : 44.100 Hz; 16 Bit; Stereo

TOC of the extracted CD

Track | Start | Length | Start sector | End sector
---------------------------------------------------------
1 | 0:00.00 | 3:46.38 | 0 | 16987
2 | 3:46.38 | 3:59.71 | 16988 | 34983
3 | 7:46.34 | 3:34.55 | 34984 | 51088
4 | 11:21.14 | 4:19.01 | 51089 | 70514
5 | 15:40.15 | 4:19.35 | 70515 | 89974
6 | 19:59.50 | 5:03.37 | 89975 | 112736
7 | 25:03.12 | 3:36.47 | 112737 | 128983
8 | 28:39.59 | 3:35.64 | 128984 | 145172
9 | 32:15.48 | 2:44.30 | 145173 | 157502
10 | 35:00.03 | 4:31.49 | 157503 | 177876
11 | 39:31.52 | 4:14.66 | 177877 | 196992

Range status and errors

Selected range

Filename Gruga_Rika-losslessModaDruga_Rika- Moda.wav

Peak level 100.0 %
Range quality 100.0 %
Copy CRC 85963F3F
Copy OK

No errors occurred

End of status report


Історія групи

Гурт «Друга Ріка» був створений на початку 1996 року.

Історія цих музикантів не має нічого спільного з легендою «Прокинувся відомим!». Їх успіх – результат міцної дружби, багаторічної плідної праці та шаленою любові до музики.

Значною подією для гурту стала перемога на фестивалі «Майбутнє України» у 1999 році, де гурт посів перше місце сере більш ніж 100 претендентів.

Окрилена успіхом «Друга Ріка» записує дебютний альбом «Я є» та видає його восени 2000 року. Трекі «Впусти мене» та «Там де ти» першими отримали відео підтримку та швидко стали відомими.

В жовтні 2000 року гурт стає відкриттям фестивалю «Просто Рок».

В травні 2001 року гурт стає номінантом в категорії «Відкриття року» найпрестижнішої української музикальної премії «Золота Жар-Птиця».

В 2001 році гурт – номінант в категорії «Найкращий поп-гурт».

Влітку 2001 «ДР» розродилась піснею «Оксана», з якою тривалий час асоціювали гурт

В грудні 2002 року стартує сингл «Математика», котрий передує виходу нового альбому.

В березні 2003 року гурт підписує контракт з передовим українським лейблом Lavina Music та видає альбом «Два» - результат дворічної студійної роботи «ДР». В той самий час до гурту приєднується клавішник Сергій (Шура) Гера.

В червні 2003 року менеджмент Dave-а Gahan-а (вокаліста Depeche Mode) обирає гурт – в якості розігріва – для спільного виступу в Київі, під час свого світового «Paper Monster» туру.

Виступ на російсько-українському фестивалі «Рупор» у 2003 році було названо критиками одним з кращих за всю історію фестивалю, завдяки чому пісні гурту потрапляють до російського ефіру. Зокрема, на радіо «Maximum» хіт «Вже не сам» був в ефірі понад 3 місяці. Пісня «Вже не сам» стає народним хітом. Після тривалого мовчання «Друг Ріка» бере менеджмент гурту в свої руки. Результат не примусив на себе чекати – 26 квітня 2005 року компанія Lavina Music відає третій альбом «ДР» під назвою «Рекорди», котрий стає «золотим». Сингл «Так мало тут тебе» 32 тижні протримався в українських хіт-парадах. Наприклад, на «Gala Radio» пісня прозвучала понад 1000 разів.

Альбом щедрий на хіти. Пісня «П’ю з твоїх долонь» повертає «Другу Ріку» на російське MTV. «Спи до завтра» отримала відео підтримку з двох кліпів, а пісня «Три хвилини» повторила подвиг «Так мало тут тебе» - вона і досі активно замовляється в ротації.

В вересні 2005 року «ДР» перевидає свій «дебютник» «Я є» та включає раниш не видану «Не моя земля».

В листопаді 2006-го року виходить новий сингл «Денніч», котрий за короткий час (за результатами ФДР Радіо-Центра) стає кращою українською піснею і по цей день займає перші місця в національних хіт-парадах. В грудні 2006 року, з приводу свого десятиріччя, «Друга Ріка» випускає альбом з 13-ти своїх кращих пісень за всю історію гурту з головним треком «Денніч».

Гурт «Друга Ріка» неодноразово приймала участь в головному українському фестивалі «Таврійські Ігри». Пісні гурту тричі ставали «Піснею Року» на однойменному теле-фестивалі. «Друга Ріка» представляла Україну на міжнародних фестивалях в місті Gdansk 2004 (Польща) та «Слав'янский базар» 2005 (Білорусь).

Склад Групи

Валерій Харчишин - вокал, труба.
Олександр Баранівський (Корадо) - гітара.
Віктор Скуратівський - бас.
Олексій Дорошенко - ударні.
Сергій Гера - клавішні.
Сергій Біліченко (Бєлік) - гітара.

Официальный сайт: http://www.drugarika.com/

Звук: FLAC
Битрейт: 1200 кбит/с (lossless)
Продолжительность: 03:47:49
Скриншоты    
РаздающийПоследний раз был здесь 434d 01:01:39 назад
Размер1.70 GB (1,827,375,480 байт)
Добавлен2010-05-19 20:28:39
Скачан85 раз
BONUSDownload на 40% не учитывается!

место под вашу рекламу

Комментарии

  1. 1
    Не в сети boing77777 - Super User (2010-05-19 22:27:15) upload 253.80 GB, download 201.86 GB, 1.26
    А че такой большой размер 1.70 GB ?
  2. 2
    Не в сети flyrider - Super User (2010-05-19 22:46:12) upload 2.902 TB, download 3.307 TB, 0.88
    Чем больше битрейт тем лучше качество звука, тем больше размер))
  3. 3
    Не в сети stalker2012 - Пользователь (2010-07-25 16:20:16) upload 694.89 GB, download 757.19 GB, 0.92
    Пожалуйста,станьте кто-нибудь на раздачу!

    Последний раз редактировалось stalker2012 в 2010-07-25 16:21:35

  4. 4
    Не в сети eNmSpark - Опытный пользователь (2010-07-25 16:55:23) upload 4.045 TB, download 2.043 TB, 1.98
    На этой неделе удалил музыку. Надо было тебе раньше качать xD
  5. 5
    Не в сети KolyuchiY - Super User (2010-08-08 13:28:53) upload 544.86 GB, download 4.61 GB, 118.18
    eNmSpark-дружище,будь так добр НАКИНЬКА СКОРОСТИ!!!!!!
    заранее благодарен за понимание!!!
Всего 5 на 1 страницах по 10 на каждой странице.

vkontakte Last.fm Twitter Одноклассники P.S.Lan
reklama




Загрузка...