Привет, друг!!!

  • Если что-то не получается
  • Алексей (Skype)
  • katafalk555
  • Помощь по форуму
  • 473868046 Женя
  • Общие вопросы
  • Татьяна (QIP)
  • User ID: tarantinka3
загрузка...

Торрент был удален.

Торрент удален по причине «Претензия правообладателя.».
место под вашу рекламу

Комментарии

  1. 1
    Не в сети Оплатите смену ника Donor - [GoldNinja] (2010-06-07 16:14:06) upload 514.66 GB, download 32.77 GB, 15.71
    Тем Кому Это Интерестно

    Скрытый текст
    General
    Complete name                    : D:торент прогиторентРелизФильмыRIGINT Yaaa WRONG.avi
    Format                           : AVI
    Format/Info                      : Audio Video Interleave
    Format profile                   : OpenDML
    File size                        : 1.42 GiB
    Duration                         : 2h 4mn
    Overall bit rate                 : 1 636 Kbps
    Writing application              : Lavf52.39.0

    Video
    ID                               : 0
    Format                           : AVC
    Format/Info                      : Advanced Video Codec
    Format profile                   : Baseline@L3.0
    Format settings, CABAC           : No
    Format settings, ReFrames        : 1 frame
    Codec ID                         : H264
    Duration                         : 2h 4mn
    Bit rate                         : 1 500 Kbps
    Width                            : 640 pixels
    Height                           : 480 pixels
    Display aspect ratio             : 4:3
    Frame rate                       : 25.000 fps
    Resolution                       : 8 bits
    Colorimetry                      : 4:2:0
    Scan type                        : Progressive
    Bits/(Pixel*Frame)               : 0.195
    Stream size                      : 1.30 GiB (91%)
    Writing library                  : x264 core 77
    Encoding settings                : cabac=0 / ref=1 / deblock=0:0:0 / analyse=0x1:0 / me=dia / subme=8 / psy=1 / psy_rd=1.0:0.0 / mixed_ref=0 / me_range=16 / chroma_me=0 / trellis=0 / 8x8dct=0 / cqm=0 / deadzone=21,11 / chroma_qp_offset=-2 / threads=2 / nr=0 / decimate=1 / mbaff=0 / constrained_intra=0 / bframes=0 / keyint=250 / keyint_min=25 / scenecut=0 / rc_lookahead=40 / rc=abr / mbtree=1 / bitrate=1500 / ratetol=1.0 / qcomp=0.60 / qpmin=10 / qpmax=51 / qpstep=4 / ip_ratio=1.41 / aq=1:1.00

    Audio
    ID                               : 1
    Format                           : MPEG Audio
    Format version                   : Version 1
    Format profile                   : Layer 3
    Format_Settings_Mode             : Joint stereo
    Format_Settings_ModeExtension    : MS Stereo
    Codec ID                         : 55
    Codec ID/Hint                    : MP3
    Duration                         : 2h 4mn
    Bit rate mode                    : Constant
    Bit rate                         : 128 Kbps

    Channel(s)                       : 2 channels
    Sampling rate                    : 44.1 KHz
    Stream size                      : 114 MiB (8%)
    Alignment                        : Aligned on interleaves
    Interleave, duration             : 26 ms (0.65 video frame)
    Interleave, preload duration     : 26 ms
  2. 2
    Не в сети хирурго - Super User (2010-06-07 21:03:02) upload 0.991 TB, download 386.92 GB, 2.62
    как фильм??? кто смотрел???
  3. 3
    Не в сети DShuba - Super User (2010-06-07 21:15:40) upload 4.138 TB, download 259.23 GB, 16.34
    хирурго писал
    как фильм??? кто смотрел???


    Индия есть индия:в основном слёзы,то есть для женского пола.
    Автору - респект за столь подробные технические характеристики (везде бы так)!

    Последний раз редактировалось DShuba в 2010-06-07 21:17:14

Всего 3 на 1 страницах по 10 на каждой странице.

vkontakte Last.fm Twitter Одноклассники P.S.Lan
reklama




Загрузка...