Привет, друг!!!

  • Если что-то не получается
  • Алексей (Skype)
  • katafalk555
  • Помощь по форуму
  • 473868046 Женя
  • Общие вопросы
  • Татьяна (QIP)
  • User ID: tarantinka3
загрузка...

Торрент был удален.

Торрент удален по причине «Претензия правообладателя.».
место под вашу рекламу

Комментарии

  1. 1
    Не в сети Оплатите смену ника Donor - [GoldNinja] (2010-06-11 23:51:41) upload 514.66 GB, download 32.77 GB, 15.71
    Для Тех Кому Интерестно  
    Скрытый текст
    General
    Complete name                    : D:торент прогиторентРелизФильмыLittle Cars.avi
    Format                           : AVI
    Format/Info                      : Audio Video Interleave
    File size                        : 607 MiB
    Duration                         : 45mn 43s
    Overall bit rate                 : 1 857 Kbps
    Writing application              : Lavf52.39.0

    Video
    ID                               : 0
    Format                           : MPEG-4 Visual
    Format profile                   : Simple@L1
    Format settings, BVOP            : No
    Format settings, QPel            : No
    Format settings, GMC             : No warppoints
    Format settings, Matrix          : Default (H.263)
    Codec ID                         : DX50
    Codec ID/Hint                    : DivX 5
    Duration                         : 45mn 43s
    Bit rate                         : 1 651 Kbps
    Width                            : 640 pixels
    Height                           : 480 pixels
    Display aspect ratio             : 4:3
    Frame rate                       : 29.970 fps
    Resolution                       : 8 bits
    Colorimetry                      : 4:2:0
    Scan type                        : Progressive
    Bits/(Pixel*Frame)               : 0.179
    Stream size                      : 540 MiB (89%)
    Writing library                  : Lavc52.36.0

    Audio
    ID                               : 1
    Format                           : MPEG Audio
    Format version                   : Version 1
    Format profile                   : Layer 3
    Format_Settings_Mode             : Joint stereo
    Format_Settings_ModeExtension    : MS Stereo
    Codec ID                         : 55
    Codec ID/Hint                    : MP3
    Duration                         : 45mn 43s
    Bit rate mode                    : Constant
    Bit rate                         : 192 Kbps
    Channel(s)                       : 2 channels
    Sampling rate                    : 48.0 KHz
    Stream size                      : 62.8 MiB (10%)
    Alignment                        : Aligned on interleaves
    Interleave, duration             : 24 ms (0.72 video frame)


    Прошу прощения за снесенный релиз он был не полным там оконцовки не было вот этот релиз полный !!! Еще раз Прошу Прошения.
  2. 2
    Не в сети gorinich - Super User (2010-06-12 00:31:06) upload 9.308 TB, download 1.00 GB, 9,511.16
    парень шутит. личная оценка: 1 из 10.
    я гляжу, у него все раздачи 10 из 10. критерии оценки в студию!
  3. 3
    Не в сети DVs_Red - Super User (2010-06-12 09:30:05) upload 34.466 TB, download 740.81 GB, 47.64
    не удивлён личной оценкой, так как смотрел данное "произведении искусства"!
    правда не долго, минуты 3-4 больше возможности сдерживать рвотный порыв не было!
  4. 4
    Не в сети Hartman - Super User (2010-06-15 04:55:51) upload 9.594 TB, download 2.472 TB, 3.88
    Дайте скорости плиз!
  5. 5
    Не в сети sirosh - Super User (2010-07-13 16:33:35) upload 111.39 GB, download 6.42 GB, 17.36
    Скорость на нуле. Раздайте, будьте так добры!
Всего 5 на 1 страницах по 10 на каждой странице.

vkontakte Last.fm Twitter Одноклассники P.S.Lan
reklama




Загрузка...