Привет, друг!!!

  • Если что-то не получается
  • Алексей (Skype)
  • katafalk555
  • Помощь по форуму
  • 473868046 Женя
  • Общие вопросы
  • Татьяна (QIP)
  • User ID: tarantinka3
загрузка...

Торрент был удален.

Торрент удален по причине «Претензия правообладателя.».
место под вашу рекламу

Комментарии

  1. 1
    Не в сети Lightning_01 - Super User (2011-07-06 12:53:16) upload 687.11 GB, download 143.48 GB, 4.79
    Тоже верно.. Но лучшего не нашёл.
  2. 2
    Не в сети EROR_404Donor - One Love, One Life, One United| (2011-07-06 12:55:59) upload 2.434 TB, download 10.12 GB, 246.25
    релиз на Blu-Ray: 22 августа 2011, «Columbia/Sony», ...
    будем ждать значить
  3. 3
    Не в сети MaSS - Super User (2011-07-06 19:00:03) upload 609.58 GB, download 533.91 GB, 1.14
    Зачем заливать аскейл? Еще нет ни BDRip-ов ни BD-дисков с этим фильмом. Это самый настоящий аскейл!!!

    Автор дай MediaInfo рипа. Посмотрим какие настройки кодирования, хотя для аскейла это почти ничего не значит.

    Последний раз редактировалось MaSS в 2011-07-06 19:03:53

  4. 4
    Не в сети respecT_T - Опытный пользователь (2011-07-06 23:10:23) upload 4.822 TB, download 2.932 TB, 1.64
    Вы лучше скажите как фильм? ))
  5. 5
    Не в сети Lightning_01 - Super User (2011-07-06 23:22:32) upload 687.11 GB, download 143.48 GB, 4.79
    MaSS, если есть картинка получше - с радостью скачаю. Выкладывай. Ну же.
    тыц
    Общее
    Уникальный идентификатор         : 174921366599436765086703553167930991906 (0x8398A13991EED1A084310A7FFAD8A522)
    Полное имя                       : C:\Priest.2011.1080p.AC3.MKV.x264.Eng.Rus.Aviritius.mkv
    Формат                           : Matroska
    Размер файла                     : 4,37 Гбайт
    Продолжительность                : 1 ч. 23 м.
    Общий поток                      : 7473 Кбит/сек
    Дата кодирования                 : UTC 2011-07-06 08:37:58
    Программа кодирования            : mkvmerge v4.0.0 ('The Stars were mine') сборка от Jun  6 2010 16:18:42
    Библиотека кодирования           : libebml v1.0.0 + libmatroska v1.0.0

    Видео
    Идентификатор                    : 1
    Формат                           : AVC
    Формат/Информация                : Advanced Video Codec
    Профиль формата                  : High@L4.1
    Параметр CABAC формата           : Да
    Параметр ReFrames формата        : 3 кадры
    Идентификатор кодека             : V_MPEG4/ISO/AVC
    Продолжительность                : 1 ч. 23 м.
    Вид битрейта                     : Переменный
    Битрейт                          : 6575 Кбит/сек
    Максимальный битрейт             : 14,0 Мбит/сек
    Ширина                           : 1920 пикс.
    Высота                           : 804 пикс.
    Соотношение сторон               : 2,35:1
    Частота кадров                   : 23,976 кадр/сек
    Цветовое пространство            : YUV
    Подвыборка цветности             : 4:2:0
    Битовая глубина                  : 8 бит
    Тип развёртки                    : Прогрессивная
    Бит/(Пиксели*Кадры)              : 0.178
    Размер потока                    : 3,76 Гбайт (86%)
    Заголовок                        : 1080p rip by 395072390
    Библиотека кодирования           : x264 core 114 r1924 08d04a4
    Настройки программы              : cabac=1 / ref=4 / deblock=1:0:0 / analyse=0x3:0x113 / me=hex / subme=7 / psy=1 / psy_rd=1.00:0.00 / mixed_ref=1 / me_range=16 / chroma_me=1 / trellis=1 / 8x8dct=1 / cqm=0 / deadzone=21,11 / fast_pskip=1 / chroma_qp_offset=-2 / threads=3 / sliced_threads=0 / slices=4 / nr=0 / decimate=1 / interlaced=0 / constrained_intra=0 / bframes=3 / b_pyramid=1 / b_adapt=1 / b_bias=0 / direct=1 / weightb=1 / open_gop=2 / weightp=0 / keyint=24 / keyint_min=2 / scenecut=40 / intra_refresh=0 / rc_lookahead=24 / rc=2pass / mbtree=1 / bitrate=6575 / ratetol=1.0 / qcomp=0.60 / qpmin=0 / qpmax=69 / qpstep=4 / cplxblur=20.0 / qblur=0.5 / vbv_maxrate=14000 / vbv_bufsize=14500 / nal_hrd=vbr / ip_ratio=1.40 / aq=1:1.00
    Язык                             : English
    Основные цвета                   : BT.709-5, BT.1361, IEC 61966-2-4, SMPTE RP177
    Характеристики трансфера         : BT.709-5, BT.1361
    Коэффициенты матрицы             : BT.709-5, BT.1361, IEC 61966-2-4 709, SMPTE RP177

    Аудио #1
    Идентификатор                    : 2
    Формат                           : AC-3
    Формат/Информация                : Audio Coding 3
    Расширение режима                : CM (complete main)
    Идентификатор кодека             : A_AC3
    Продолжительность                : 1 ч. 23 м.
    Вид битрейта                     : Постоянный
    Битрейт                          : 448 Кбит/сек
    Канал(ы)                         : 6 канала(ов)
    Расположение каналов             : Front: L C R, Side: L R, LFE
    Частота                          : 48,0 КГц
    Битовая глубина                  : 16 бит
    Метод сжатия                     : С потерями
    Размер потока                    : 268 Мбайт (6%)
    Заголовок                        : Rus track // Dub

    Аудио #2
    Идентификатор                    : 3
    Формат                           : AC-3
    Формат/Информация                : Audio Coding 3
    Расширение режима                : CM (complete main)
    Идентификатор кодека             : A_AC3
    Продолжительность                : 1 ч. 23 м.
    Вид битрейта                     : Постоянный
    Битрейт                          : 448 Кбит/сек
    Канал(ы)                         : 2 канала(ов)
    Расположение каналов             : Front: L R
    Частота                          : 48,0 КГц
    Битовая глубина                  : 16 бит
    Метод сжатия                     : С потерями
    Размер потока                    : 268 Мбайт (6%)
    Заголовок                        : Eng track // Original

  6. 6
    Не в сети Lightning_01 - Super User (2011-07-06 23:24:36) upload 687.11 GB, download 143.48 GB, 4.79
    respecT_T писал
    Вы лучше скажите как фильм? ))

    Не поверишь - даже не смотрел.
Всего 26 на 3 страницах по 10 на каждой странице.

vkontakte Last.fm Twitter Одноклассники P.S.Lan
reklama




Загрузка...