Привет, друг!!!

  • Если что-то не получается
  • Алексей (Skype)
  • katafalk555
  • Помощь по форуму
  • 473868046 Женя
  • Общие вопросы
  • Татьяна (QIP)
  • User ID: tarantinka3
загрузка...

Dj Tapolsky - Time 2 Bass (2010-2011) MP3

МузыкаСкачать: Dj Tapolsky - Time 2 Bass (2010-2011) MP3

Проверен
Рейтинг5845
              
Обложка
Dj Tapolsky - Time 2 Bass (2010-2011) MP3
Описание
Исполнитель: Dj Tapolsky
Альбом: Time 2 Bass
Год выпуска: 2010-2011
Жанр: Drum`n`Bass, Dubstep

Треклист:
tapolsky - time2bass 03.11.2010 (live)

http://fs80.www.ex.ua/show/5063927/5063927.jpg
Audio
Format : MPEG Audio
Format version : Version 1
Format profile : Layer 3
Mode : Joint stereo
Mode extension : MS Stereo
Duration : 58mn 39s
Bit rate mode : Constant
Bit rate : 192 Kbps
Channel(s) : 2 channels
Sampling rate : 44.1 KHz
Stream size : 80.4 MiB (100%)
Треклист
N/A
INFO:
Файл с голосом, весь выпуск (live):
tapolsky_time2bass-03-11-2010-live.mp3
Файл без голоса [256 kbps]
Tapolsky_-_TIME_2_BASS_03-11-2010_[VOICELESS].mp3

tapolsky - time2bass 043 | 10.11.2010 (live)

http://fs9.www.ex.ua/show/5221164/5221164.jpg
Audio
Format : MPEG Audio
Format version : Version 1
Format profile : Layer 3
Mode : Joint stereo
Mode extension : MS Stereo
Duration : 57mn 19s
Bit rate mode : Constant
Bit rate : 224 Kbps
Channel(s) : 2 channels
Sampling rate : 44.1 KHz
Stream size : 91.8 MiB (100%)
Треклист
I-часть Dubstep
01. Plan B - The Recluse (Nero Remix)
02. Flux Pavillon - Haunt You
03. Swedish House Mafia - The One (Caspa Dub Remix)
04. ID
05. Doctor P - Big Boss
0 6.Chasing Shadows - ID
II-часть Drum&Bass
07. Adele - Hometown Glory (High Contrast Remix)
08. Above and Beyond and Gareth Emery - On A Good Day (Metropolis) (J Majik & Wickaman Remix)
09. ID
10. Brooks Brother - Last Night
11. Chew Lips - Karen (Netsky Remix)
12. Delta Heavy - Take The Stairs
13. Delta Heavy - Space Time
14. ID
INFO:
Файл с голосом, весь выпуск (live):
tapolsky_time2bass-10-11-2010-live.mp3

tapolsky - time2bass 044 | special ''techno-week on kissfm'' mix | 17.11.2010 (live)

http://fs4.www.ex.ua/show/5366336/5366336.jpg
Audio
Format : MPEG Audio
Format version : Version 1
Format profile : Layer 3
Mode : Joint stereo
Mode extension : MS Stereo
Duration : 59mn 45s
Bit rate mode : Constant
Bit rate : 224 Kbps
Channel(s) : 2 channels
Sampling rate : 44.1 KHz
Stream size : 95.7 MiB (100%)
Треклист
01. Ксения Беляева - Как ты (Original Mix)
02. Ксения Беляева - Momentan
03. Trentemoller - Moan
04. Stephan Bodzin and Marc Romboy - Callisto (Original Mix)
05. Marc Romboy vs Stephan Bodzin - Triton
06. Marc Romboy vs Stephan Bodzin - Puck
07. Djuma Soundsystem - Les Djins (Trentmoller Remix)
08. Trentemoller - Miss You
09. Paul Kalkbrenner - Aaron
10. Trentemoller-.......
11. John Tejada - The End Of It Al
INFO:
Файл с голосом, весь выпуск (live):
tapolsky_time2bass-special_techno-week_mix-17-11-2010-live.mp3

tapolsky - time2bass 045 | Giant special guestmix | 24-11-2010 (live)

http://fs9.www.ex.ua/show/5540310/5540310.jpg
Audio
Format : MPEG Audio 3
Mode : Joint stereo
Mode extension : MS Stereo
Duration : 1h 0mn
Bit rate mode : Constant
Bit rate : 224 Kbps
Channel(s) : 2 channels
Sampling rate : 44.1 KHz
Stream size : 96.2 MiB
Треклист
N/A
INFO:
Файл с голосом, весь выпуск (live):
Tapolsky_time2bass-GIANT_special_guestmix-24-11-2010-live.mp3

tapolsky - time2bass 047 | 08-12-2010 (live)

http://fs8.www.ex.ua/show/5936485/5936485.jpg
Audio
Format : MPEG Audio
Format version : Version 1
Format profile : Layer 3
Mode : Joint stereo
Mode extension : MS Stereo
Duration : 58mn 57s
Bit rate mode : Constant
Bit rate : 224 Kbps
Channel(s) : 2 channels
Sampling rate : 44.1 KHz
Stream size : 94.4 MiB (100%)
Треклист
[00:00] 01. N.E.R.D. & Daft Punk - Hypnotize U (Nero Remix)
[05:42] 02. Paul Harris Vs Eurythmics - I Want You (Bar 9 Remix)
[09:40] 03. Skrillex - Fucking Die 1
[12:24] 04. Doctor P - Black Books feat. RSK
[14:11] 05. Doctor P - Big Boss
[18:05] 06. Skrillex - Scatta (Ft. Foreign Beggars And Bare Noize)
[20:50] 07. The Bloody Beetroots - Warp 1977 (feat. Steve Aoki and Bobberman) (Dirtyphonics DubStep Remix)
[24:35] 08. Skrillex - Scary Monsters And Nice Sprites (Noisia Remix)
[27:14] 09. Foreign Beggars ft. Chasing Shadows - Typhoon
[30:00] 10. Laid Blak - Red (Chasing Shadows Remix)
[32:17] 11. Chasing Shadows - Odyssey
[34:19] 12. Tony Anthem & Axl Ender - Chosen One
[38:34] 13. Skrillex - Weekends!!! (feat. Sirah)
[41:50] 14. Skrillex - Do Da Oliphant
[43:50] 15. Rusko - Hold On (feat. Amber Coffman) (Sub Focus Remix)
[45:00] 16. The Bloody Beetroots - Warp 1.9 (ft. Steve Aoki) (Dj Oder Drum & Bass Remix)
[47:55] 17. Black Sun Empire - Deadhouse (feat. Jade)
[51:35] 18. Black Sun Empire - Extraction
[55:35] 19. Black Sun Empire & Nymfo - Kempi
INFO:
Файл с голосом, весь выпуск (live):
tapolsky_time2bass-08-12-2010-live.mp3

tapolsky - time2bass 048 | Purple Unit guestmix | 15-12-2010 (live)

http://fs9.www.ex.ua/show/6112621/6112621.jpg
Audio
Format : MPEG Audio
Format version : Version 1
Format profile : Layer 3
Mode : Joint stereo
Mode extension : MS Stereo
Duration : 59mn 34s
Bit rate mode : Constant
Bit rate : 224 Kbps
Channel(s) : 2 channels
Sampling rate : 44.1 KHz
Stream size : 95.4 MiB (100%)
Writing library : LAME3.98.2
Треклист
1я половина
Vital Elements - Writing History
Zen - Boom Box
Crystal Clear - Itzalot
Pleasure - Expansion
Rawtee - Inmate
Crystal Clear & Zen - The Man With No Name
Delta Heavy - Space Time
Wilkinson - Scream It
Tantrum Desire - Just Cant Wait
Delta Heavy - Abort
Nightwalker - Time
Tyke & Callide - Set Style
Original Sin & Taxman - Casino
Cue & Prestige - Shutter Island
Pleasure & Origin - D Day
Callide - Supreme
Tantrum Desire - Freeze
Delta Heavy - Take The Stars
Culture Shock - Cathedral
2я половина
N/A
INFO:
Файл с голосом, весь выпуск (live):
048_tapolsky_time2bass-PURPLE_UNIT_guestmix-15-12-2010-live.mp3
Файл без голоса, только микс Purple Unit [320 kbps]:
048_Purple_Unit_-_Time_2_Bass_VOICELESS_mix-15_december_2010.mp3

tapolsky - time2bass 049 | Purple Unit guestmix | 22-12-2010 (Rebroadcast/Повтор)

http://fs9.www.ex.ua/show/6112621/6112621.jpg
Повтор прошлого эфира, тот же микс, только без голоса (Purple Unit guestmix), поэтому не выкладываю

tapolsky - time2bass 050 | LAST T2B 2010 | 29-12-2010

http://fs36.www.ex.ua/show/6398065/6398065.jpg
Audio
Format : MPEG Audio
Format version : Version 1
Format profile : Layer 3
Mode : Joint stereo
Mode extension : MS Stereo
Duration : 1h 3mn
Bit rate mode : Constant
Bit rate : 256 Kbps
Channel(s) : 2 channels
Sampling rate : 44.1 KHz
Stream size : 117 MiB (100%)
Writing library : LAME3.97
Треклист:
N/A
INFO:
Микс был записан Тапольским заранее, поэтому файл без голоса:
050_dj_Tapolsky_-_last_t2b_2010.mp3

tapolsky - time2bass 001 | 12-01-2011 (live)

http://fs147.www.ex.ua/show/6728435/6728435.jpg?800
Audio
Mode : Joint stereo
Mode extension : MS Stereo
Duration : 1h 1mn
Bit rate mode : Constant
Bit rate : 224 Kbps
Channel(s) : 2 channels
Sampling rate : 44.1 KHz
Compression mode : Lossy
Stream size : 99.0 MiB (100%)
Writing library : LAME3.98.2
Треклист
N/A
INFO:
Файл с голосом, весь выпуск (live):
001_tapolsky_time2bass-12-01-2011-live-kissfmua.mp3

tapolsky - time2bass 002 | 19-01-2011 (live + voiceless)

http://fs9.www.ex.ua/show/6924570/6924570.jpg
Audio
Mode : Joint stereo
Duration : 59mn 36s
Bit rate mode : Constant
Bit rate : 224 Kbps
Channel(s) : 2 channels
Sampling rate : 44.1 KHz
Compression mode : Lossy
Stream size : 95.4 MiB (100%)
Writing library : LAME3.98
Треклист
[00:00] 01. Feed Me (Spor) - Blood Red
[03:20] 02. Skrillex - Scary Monsters And Nice Sprites (Noisia Remix)
[07:15] 03. Nero - Welcom Reality
[09:38] 04. Feed Me (Spor) - Cloudburn (feat. Tasha Baxter)
[14:10] 05. Professor Green - Jungle (16bit Remix)
[18:50] 06. Gorillaz feat. Daley - Doncamatic (Joker Remix)
[22:40] 07. Plan B - Prayin (Breakage Remix)
[27:56] 08. Nero - Me & You
[31:12] 09. Medison ft. Skrein - Harry (Bare Noize Remix)
[34:40] 10. 12th Planet & Juakali - Reasons (Doctor P Remix)
[37:54] 11. Ms Dynamite ft Redlight - What You Talkin About
[40:00] 12. Feed Me (Spor) - Silicone Lube
[44:25] 13. Feed Me (Spor) - White Spirit
[48:00] 14. Ed Solo and Deekline - Blow Out (Deekline and Product 01 Remix)
[49:45] 15. Plan B - Love Goes Down (Doctor P Remix)
[54:46] 16. Nero - Me & You (Dirtyphonics Remix)
[57:30] 17. Dan Le Sac Vs Scroobius Pip - Sick Tonight (Doctor P Remix)
INFO:
Файл с голосом, весь выпуск (live):
002_tapolsky_time2bass-19-01-2011-live-kissfmua.mp3
Файл без голоса, весь выпуск:
002_Tapolsky_-_Sick_Tonight_topdj.ua_256kbps.mp3

tapolsky - time2bass 003 | DJ VIKI SKY Guestmix | 26-01-2011 (live)

http://fs11.www.ex.ua/show/7188451/7188451.jpg
Audio
Mode : Joint stereo
Mode extension : MS Stereo
Duration : 58mn 28s
Bit rate mode : Constant
Bit rate : 224 Kbps
Channel(s) : 2 channels
Sampling rate : 44.1 KHz
Compression mode : Lossy
Stream size : 93.6 MiB (100%)
Writing library : LAME3.98
Треклист
1st part
Dj Viki Sky dubstep guestmix
2nd part
Dj Tapolsky drum'n'bass mix
INFO:
Файл с голосом, весь выпуск (live):
003_tapolsky_time2bass-dj_viki_sky_guestmix-26-01-2011-live-kissfmua.mp3
Файл без голоса, весь выпуск:
003_dj_VikiSky_-_Dub_Step_Mix_topdj.ua_320kbps.mp3

tapolsky - time2bass 004 | 02-02-2011 (live)

http://fs8.www.ex.ua/show/7285141/7285141.jpg
Audio
MMode : Joint stereo
Mode extension : MS Stereo
Duration : 1h 0mn
Bit rate mode : Constant
Bit rate : 224 Kbps
Channel(s) : 2 channels
Sampling rate : 44.1 KHz
Compression mode : Lossy
Stream size : 96.3 MiB (100%)
Треклист
N/A
INFO:
Файл с голосом, весь выпуск (live):
004_tapolsky_time2bass-02-02-2011-live-kissfmua.mp3

tapolsky - time2bass 005 | DJ ALEXX RAVE Guestmix | 09-02-2011 (live)

http://fs8.www.ex.ua/show/7470476/7470476.jpg?800
Audio
Format : MPEG Audio
Mode : Joint stereo
Mode extension : MS Stereo
Duration : 1h 1mn
Bit rate mode : Constant
Bit rate : 224 Kbps
Channel(s) : 2 channels
Sampling rate : 44.1 KHz
Compression mode : Lossy
Stream size : 97.9 MiB (100%)
Writing library : LAME3.98.2
Треклист
1st part
Dj Alexx Rave drum'n'bass guestmix
1. Breakbot - Baby I'm Yours (Alexx Rave Bootleg)
2. Alexx Rave - Absolute Happiness [Pirate Station]
3. Alexx Rave - Test 27 [Pirate Station]
4. Alexx Rave - Instead Of Me [Unreleased]
5. Alexx Rave & Ksenia Lorents - About Sex (Hard Sex Edit) [Audio Boutique]
6. Public Domain - Phatt Blade (Alexx Rave Dub)
7. Alexx Rave, Kristin Loyen & Ksenia Lorents - You'll Never Find Me
(DaBass Mix) [Unreleased]
8. Alexx Rave - Particularly Beautiful Day [Audio Boutique]
2nd part
Dj Tapolsky dubstep mix
INFO:
Файл с голосом, весь выпуск (live):
005_tapolsky_time2bass-dj_alexx_rave_guestmix-09-02-2011-live-kissfmua.mp3
В первой половине свой гостевой микс, полностью из авторских треков, играет продюсер и ди-джей Alexx Rave (Россия, Тверь)
Во второй половине - Анатолий Тапольский представляет микс-селекшн из дабстеп композиций которые приглянулись ему за последнее время!

tapolsky - time2bass 006 | Conceptual non drum'n'bass mix | 16-02-2011 (live)

http://fs11.www.ex.ua/show/7631136/7631136.jpg
Audio
Format : MPEG Audio
Mode : Joint stereo
Mode extension : MS Stereo
Duration : 57mn 47s
Bit rate mode : Constant
Bit rate : 224 Kbps
Channel(s) : 2 channels
Sampling rate : 44.1 KHz
Compression mode : Lossy
Stream size : 92.5 MiB (100%)
Writing library : LAME3.98.2
Треклист
N/A
INFO:
Файл с голосом, весь выпуск (live):
006_tapolsky_time2bass-conceptual_non_dnb_mix-16-02-2011-live-kissfmua.mp3
Файл БЕЗ голоса:
006_Tapolsky_-_Nepopsovaya_Sreda_(Voiceless)_256kbps.mp3
В выпуске прозвучал специальный, не форматный, микс от Анатолия из так называемой электроники жанра easy listening, есть и idm и более чилл-аутные мотивы, в общем все самое красивое и атмосферное. В этом выпуске нет ни драм енд бейса, ни дабстепа Приятного прослушивания!

tapolsky - time2bass 007 | Oldschool drum'nbass mix | 23-02-2011

http://fs4.www.ex.ua/get/7813386/007_tapolsky_time2bass-oldschool_dnb_mix-23-02-2011-kissfmua.jpg
Audio
Format : MP3
Mode : Joint stereo
Mode extension : MS Stereo
Duration : 57mn 39s
Bit rate mode : Constant
Bit rate : 224 Kbps
Channel(s) : 2 channels
Sampling rate : 44.1 KHz
Compression mode : Lossy
Stream size : 92.3 MiB (100%)
Writing library : LAME3.98.2
Треклист
N/A
INFO:
Файл с голосом, весь выпуск (live):
007_tapolsky_time2bass-oldschool_dnb_mix-23-02-2011-kissfmua.mp3
В этот раз эфир без голоса. В выпуске прозвучал специфический драмнбейс микс из олдскульного винилового материала. Преобладающий «тёмный» жанр ломаного техно-саунда, именуемый как techstep в пик своей знаменитости приблизительно в 90-х годах. Неожиданно услышать такой раритет на волнах KissFM! Приятного прослушивания!

tapolsky - time2bass 008 | DJ AUGUST Guestmix | 02-03-2011 (live)

http://fs11.www.ex.ua/show/8000401/8000401.jpg
Audio
Format : MP3
Mode : Joint stereo
Mode extension : MS Stereo
Duration : 58mn 15s
Bit rate mode : Constant
Bit rate : 224 Kbps
Channel(s) : 2 channels
Sampling rate : 44.1 KHz
Compression mode : Lossy
Stream size : 93.3 MiB
Треклист
1st part
Dj August dubstep guestmix
1. Minnesota – California Dreamin (Minnesota Rmx)
2. RacknRuin – Selecta Dub (Original Mix)
3. Cyrex - Trigicone
4. AntiSerum & No Thing – Animal
5. Tay Dizm – Beam Me Up (Butch Clancy Rmx)
6. Quadrat Beat – Bring Back The Base (Original Mix)
7. Unknown - The Werewolf (Original Mix)
8. Lea Luna – Hearts Under Fire (Bire Rmx)
9. Dustin Hulton, Curtis B – FCK Your Bassline (Curtis B Rmx)
10. Evol Intent – Paradize City (Original Mix)
2nd part
Dj Tapolsky dubstep mix
INFO:
Файл с голосом, весь выпуск (live):
008_tapolsky_time2bass-dj_august_guestmix-02-03-2011-live-kissfmua.mp3
Файл без голоса, 1я половина Dj August [320 kbps]:
008_DJ_August_My_Dubstep_Special_for_Time2Bass_2011_320kbps.mp3
В первой половине свой гостевой dubstep микс, играет ди-джей August (Черкассы, Украина) Во второй половине - Анатолий Тапольский также представляет микс из дабстеп композиций которые приглянулись ему за последнее время!

tapolsky - time2bass 009 | 09-03-2011 (live)

http://fs78.www.ex.ua/get/8247719/009_tapolsky_time2bass-09-03-2011-live-kissfmua.jpg
Audio
Format : MP3
Mode : Joint stereo
Mode extension : MS Stereo
Duration : 1h 0mn
Bit rate mode : Constant
Bit rate : 256 Kbps
Channel(s) : 2 channels
Sampling rate : 44.1 KHz
Compression mode : Lossy
Stream size : 111 MiB
Треклист
[00:00] 01. Noisia - Last Look [Metalheadz]
[03:50] 02. Noisia & Hybris - Crystalline [Invisible]
[08:00] 03.
[10:14] 04. Rockwell - Full Circle [Shogun Audio]
[12:00] 05. Rockwell - Reverse Engineering [Darkestral Recordings]
[14:18] 06. Phace feat Noisia - Stagger [Neosignal]
[18:48] 07. Phace & Misanthrop - Desert Orgy [Neosignal]
[23:25] 08. Noisia - The Bells Of [Metalheadz]
[28:40] 09.
[30:53] 10.
[34:41] 11. Noisia - Displaced [Vision]
[38:40] 12. Noisia - Friendly Intension [Vision]
[42:45] 13. Reso - War Machine [Civil Music]
[48:00] 14. Apex - Inner Space [Subtitles]
[50:10] 15. Breakage feat Jess Mills - Fighting Fire (Loadstar Remix) [Digital Soundboy]
[54:35] 16. Chase & Status - Blind Faith ft. Liam Bailey (Loadstar Remix) [Mercury]
INFO:
Файл с голосом, весь выпуск (live):
009_tapolsky_time2bass-09-03-2011-live-kissfmua.mp3
В выпуске прозвучал специальный микс из "минимальных" жанров драмнбейса, deep, autonomic, лишь в конце немного более мейнстримового материала. В общем приятного всем интеллектуального прослушивания!

tapolsky - time2bass 010 | 16-03-2011 (live)

http://fs150.www.ex.ua/show/8419682/8419682.jpg?800
Audio
Format : MЗ3
Mode : Joint stereo
Mode extension : MS Stereo
Duration : 1h 2mn
Bit rate mode : Constant
Bit rate : 224 Kbps
Channel(s) : 2 channels
Sampling rate : 44.1 KHz
Compression mode : Lossy
Stream size : 100 MiB (100%)
Writing library : LAME3.98.2
Треклист
[00:00] 01. S.P.Y - By Your Side [Spearhead]
[07:05] 02. Breakage feat. Jess Mills - Fighting Fire (Loadstar Remix) [Digital Soundboy]
[11:58] 03. Loadstar - BLVD [Ram]
[15:10] 04. Chase & Status - Blind Faith ft. Liam Bailey (Loadstar Remix) [Mercury]
[21:27] 05. Netsky - Your Way [Radar]
[26:58] 06. Chew Lips - Karen (Netsky Remix) [Family Recordings]
[31:40] 07. Klute - Our Leader [Commercial Suicide]
[35:10] 08. Icicle - Arrows [Shogun Audio]
[37:43] 09. Klute - Property is Theft [Commercial Suicide]
[41:00] 10. Klute - Never Never [Commercial Suicide]
[43:11] 11. Magnetic Man Ft. John Legend - Getting Nowhere (Breakage Mix) [Magnet]
[45:35] 12. Klute - Will You Still Love Me? [Commercial Suicide]
[49:29] 13. SKC & Bratwa - Prophecy [Soul:r]
[52:23] 14. Kryptic Minds and Leon Switch - Opus Dei [Defcom Records]
[58:40] 15. Kryptic Minds and Leon Switch - Road Less Travelled [Defcom Records]
INFO:
Файл с голосом, весь выпуск (live):
010_tapolsky_time2bass-16-03-2011-live-kissfmua.mp3
В выпуске прозвучал специальный микс из легких и мелодичных жанров драмнбейса, soulful, liquid funk и intelligent. С первыми вздохами весны всех и приятного всем сладкого прослушивания!

tapolsky - time2bass 011 | BUY ONE GET ONE FREE Guestmix 23-03-2011 (без голоса)

http://fs12.www.ex.ua/get/8788583/011_tapolsky_time2bass-bogof_jungle_guestmix-23-03-2011-live-kissfmua.jpg
Audio
Format : MPEG Audio
Mode : Joint stereo
Mode extension : MS Stereo
Duration : 56mn 37s
Bit rate mode : Constant
Bit rate : 256 Kbps
Channel(s) : 2 channels
Sampling rate : 44.1 KHz
Compression mode : Lossy
Stream size : 104 MiB (100%)
Writing library : LAME3.98.2
Треклист
PART 1:
01. Eminem - My Name Is
02. Aphrodiete - Stalker
03. D.E.D. - The Rhythm The Rhythm
04. Fatboy Slim – The Rockafeller Skank (Mulders Urban Takeover Mix)
05. Natural Born Chillers - Rock The Funky Beat (Original Version)
06. Jungle Brothers - Jungle Brother (12' urban takeover mix)
07. E.P.S. and 2Vibe feat. Dj Mark – Hype the Funk
08. Dope Ammo – Roots and Culture
09. Mulder – Don’t Believe the Hype
PART 2:
01. Jungle Brothers - Because I Got It Like That (Freestylers Indett Mix)
02. Mulder – Can I Count It Off
03. Aphrodite and Mickey Finn – Drop Top Caddy
04. Dope Ammo feat. Capleton – Inta-national (Benny Page Remix)
05. Holly Valance - Down Boy (Aphrodite remix)
06. Aphrodite - Listen To The Rhythm
INFO:
Файл без голоса, весь выпуск (live):
BOGOF_with_Jalsomino_&_ML-Key_-_DnB_Week_Special_2011_Jungle_Classics_Edition_256kbps.mp3
В выпуске прозвучал тот же микс, что проект BUY ONE GET ONE FREE (Jalsomino & ML-Key) играли в "Ночь оборотней" на KissFM.
Качаем оригинал микса, наслаждаемся отличнейшим качественный джанглом!

tapolsky - time2bass 012 | 30-03-2011 (live)

http://img.alkad.org/images/8773092.jpg
Audio
Format : MP3
Mode : Joint stereo
Mode extension : MS Stereo
Duration : 1h 0mn
Bit rate mode : Constant
Bit rate : 256 Kbps
Channel(s) : 2 channels
Sampling rate : 44.1 KHz
Compression mode : Lossy
Stream size : 111 MiB
Треклист
1. ID
2. ID
3. Feed Me & Kill The Nosie - Muscle Rollers (Original Mix)
4. Calvin Harris - Awooga (Original Mix)
5. ID
6. Zedd - The Legend Of Zelda (Electrixx Remix)
7. Bart B More - Brap (Original Mix)
8. Cee Lo Green - Fuck You (Bart B More Mix)
9. Bart B More & Harvard Bass - Listen To This
10. ID
11. ID
12. ID
13. Skrillex - Scary Monsters and Nice Sprites (Zedd Remix)
14. ID
15. Dodge & Fuski - Minus One - Original Mix
16. Chaussée- ID
17. Breakage - Fighting Fire (Original)
18. Cassius - I Love U So (Skream Remix)
INFO:
Файл с голосом, весь выпуск (live):
012_tapolsky_time2bass-30-03-2011-live-kissfmua.mp3
В выпуске прозвучал специальный микс из саб-жанров современной электронной nu school музыки: nu rave, fidget house, dubstep и др. Приятного всем прослушивания!

tapolsky - time2bass 013 | 06-04-2011 (live)

http://img.alkad.org/images/8979469.jpg
Audio
Format : MP3
Mode : Joint stereo
Mode extension : MS Stereo
Duration : 1h 0mn
Bit rate mode : Constant
Bit rate : 224 Kbps
Channel(s) : 2 channels
Sampling rate : 44.1 KHz
Compression mode : Lossy
Stream size : 96.5 MiB (100%)
Writing library : LAME3.98.2
Треклист
[00:00] 01. Eric Prydz - Niton (The Reason) (Metrik Remix) [Ministry of Sound UK]
[02:46] 02. Don Diablo ft. Dragonette - Animale (The Prototypes Remix) [Sellout Sessions]
[04:35] 03. Lenzman - Masquerade [Metalheadz Platinum]
[06:33] 04. Drumsound & Bassline Smith Feat Youngman - Steal My Heart (2009 Relick) [Technique]
[08:58] 05. DJ Fresh & Sigma - Lassitude [Breakbeat Kaos]
[10:50] 06. Pendulum - Another Planet [Breakbeat Kaos]
[12:30] 07. Chase & Status - No Problem [Mercury Records]
[16:00] 08. Doctor P - Sweet Shop (Friction, Camo & Krooked Drum & Bass Mix) [Maximum Boost]
[19:00] 09. Bad Company - The Nine [BC Recordings, 1998]
[19:55] 10. Slum Dogz - Bad VIP [Maximum Boost]
[21:35] 11. Modified Motion & Faction - Think Again Fool [Dynamic Audio]
[23:40] 12. DJ SS - We Came To Entertain (Sub Zero Remix) [Formation]
[25:22] 13. Modified Motion & Faction - Sci-Fi [Dynamic Audio]
[29:48] 14. ? (Crissy Criss Remix)
[33:00] 15. Danny Byrd Feat. Cyantific & I-Kay - Judgement Day (VIP) [Hospital Records]
[34:10] 16. Chase & Status - Smash TV [RAM Records]
[36:30] 17. Shameboy - Strobot (Netsky Remix) [Radar]
[39:00] 18. ?
[41:05] 19. DJ Zinc - Reach Out (Remix) [True Playaz]
[43:08] 20. UK Apachi & Shy FX - Original Nuttah / Nuttah VIP (Shy FX Bambaata Mix) [SOUR, New State Music]
[46:30] 21. Friction vs Camo & Krooked feat. Dynamite Mc - Stand Up [UKF Music]
[48:00] 22. ?
[50:20] 23. Noisia - Friendly Intentions [Vision]
[51:50] 24. Xample & Lomax (Loadstar) - Link To The Past [Ram Records]
[53:40] 25. Loadstar - Space Between [Ram Records]
[57:08] + bonus: DJ Tapolsky feat. Alexa - Time 2 Bass [Virus Music, 2007]
INFO:
Файл с голосом, весь выпуск (live):
013_tapolsky_time2bass-06-04-2011-live-kissfmua.mp3
В выпуске прозвучал специальный микс приуроченный вечеринке в киевском клубе Forsage "DRUM по ЧЕТВЕРГАМ" которая пройдет 07-04-2011. Очень разнообразный и насыщенный микс, в котором прозвучали как хорошо известные треки, так и новые драмнбейсовые бомбы танцполов! Приятного всем прослушивания!

tapolsky - time2bass 014 | 13-04-2011 (Rebroadcast/Повтор без голоса)

http://img.alkad.org/images/1ftf.jpg
Audio
Format : MP3
Mode : Joint stereo
Mode extension : MS Stereo
Duration : 59mn 36s
Bit rate mode : Constant
Bit rate : 224 Kbps
Channel(s) : 2 channels
Sampling rate : 44.1 KHz
Compression mode : Lossy
Stream size : 95.5 MiB (100%)
Writing library : LAME3.98.2
Треклист
n/a
INFO:
Файл без голоса, весь выпуск (live):
014_tapolsky_time2bass-(voiceless)-13-04-2011-rebroadcast-kissfmua.mp3
В выпуске прозвучал повтор nu school микса (за 30.03.2011) только теперь без голоса. Наслаждаемся!

tapolsky - time2bass 015 | 20-04-2011 (без голоса)

http://img.alkad.org/images/9535577.jpg
Audio
Format : MP3
Mode : Joint stereo
Mode extension : MS Stereo
Duration : 59mn 36s
Bit rate mode : Constant
Bit rate : 224 Kbps
Channel(s) : 2 channels
Sampling rate : 44.1 KHz
Compression mode : Lossy
Stream size : 95.4 MiB (100%)
Writing library : LAME3.98.2
Треклист
n/a
INFO:
Файл без голоса, весь выпуск (live):
015_tapolsky_time2bass-20-04-2011-kissfmua.mp3
В выпуске прозвучал свежий драмнбейс микс от Анатолия с элементами экспериментального саунда. Выпуск без голоса, приятного прослушивания!

tapolsky - time2bass 016 | 27-04-2011 (без голоса)

http://img.alkad.org/images/9725938.jpg
Audio
Format : MP3
Mode : Joint stereo
Mode extension : MS Stereo
Duration : 59mn 35s
Bit rate mode : Constant
Bit rate : 224 Kbps
Channel(s) : 2 channels
Sampling rate : 44.1 KHz
Compression mode : Lossy
Stream size : 95.4 MiB (100%)
Writing library : LAME3.98.2
Треклист
01 freestylers, ctrl z feat navigator - ruffneck (excision & datsik remix)
02 turn the lights out - hadouken (jfb remix)
03 bar 9 - bakin bread
04 adam f feat redman - shut the lights off (caspa remix)
05 sidney samson - riverside (breakage remix)
06 rasputin's gold - doctor p
07 ???
08 barbarix - low freqz
09 kryptic minds - organic
10 kryptic minds - wondering why
11 trifonic - parks on fire
12 dom & roland feat noisia - tajitsu
13 dom & roland - mind feeders
14 audio - pandorum
15 noisia - deception
16 foreign beggars & noisia - contact
17 lomax - jungle fx
18 turn the lights out - hadouken (spor remix)
19 basement jaxx - twerk (sub focus remix)
20 chase & status - end credits
21 x-bass - для нее
22 kryptic minds - distant dawn
INFO:
Файл без голоса, весь выпуск (live):
016_tapolsky_time2bass-27-04-2011-kissfmua.mp3
В выпуске прозвучал свежий микс от Анатолия, первая половина - dubstep, срединка - душевный саунд , вторая половина - drum & bass. Выпуск без голоса, Тапольский еще не вернулся с Англии, приятного прослушивания!

tapolsky - time2bass 017 | 04-05-2011 (без голоса)

http://fs101.www.ex.ua/get/9930582/017_tapolsky_time2bass-04-05-2011_(rebroadcast_08-09-2010)-kissfmua.jpg
Audio
FFormat : MP3
Mode : Joint stereo
Mode extension : MS Stereo
Duration : 1h 0mn
Bit rate mode : Constant
Bit rate : 224 Kbps
Channel(s) : 2 channels
Sampling rate : 44.1 KHz
Compression mode : Lossy
Stream size : 97.3 MiB (100%)
Writing library : LAME3.98.2
Треклист
01. Underworld - Scribble (Co-Produced by High Contrast) [Om Records/Cooking]
02. X-Bass & Tapolsky - Инь и Ян [Free]
03. J Majik & Wickaman - Crazy World [Data]
04. Concord Dawn - Don't Tell Me (Ft. Tiki) [Uprising]
05. Ed Rush & Optical - Pacman (Ram Trilogy Remix) [Virus / 2010 Ministry of Sound UK]
06. Moving Fusion - Turbulence [RAM Records / 2010 Ministry of Sound UK]
07. Chase & Status - Duppy Man [Breakbeat Kaos]
08. Chase & Status - Pieces (ft Plan B) [RAM Records]
09. Gridlok & Dom - Londons Burning (Prolix Remix) [Project 51]
10. ID, maybe Delta Heavy ?
11. Size 9 - I'm Ready (Counterstrike Remix) [VC Recordings / Camouflage Recordings DnB]
12. DJ Fresh - Kryptonite [Breakbeat Kaos]
13. Netsky - Iron Heart [Hospital]
14. Netsky - Pirate Bay [Hospital]
15. Muffler - Uplifter [Spearhead]
16. Camo & Krooked - History of the Future [Audio Porn]
17. The Qemists - Bones (feat Kellermensch) [Ninja Tune]
18. Camo & Crooked - Climax [Hospital]
19. BLOKHE4D - Last Days Of Disco [Bad Taste]
INFO:
Файл без голоса, весь выпуск (live):
017_tapolsky_time2bass-04-05-2011_(rebroadcast_08-09-2010)-kissfmua.mp3
Повтор выпуска звучавшего 08.09.2010

tapolsky - Грає Drum-N-Bass | 10-05-2011

http://fs106.www.ex.ua/get/10124299/Dj_Tapolsky_Grae_Drum_N_Bass.jpg
Стили: Drum & Bass, Dubstep
Продолжительность: 63:37
Размер файла: 116.5 Мб
Формат: MP3, 256 Кбит
Дата релиза: 10-05-2011
Носители: винил
Треклист
[00:00] 01. Chase & Status - Fool Yourself (feat. Plan B & Rage) [Mercury Records]
[02:40] 02. Dj Fresh - The Gatekeeper [Ram Records]
[03:30] 03. ?
[05:35] 04. Spor - Aztec [Shogun Audio]
[07:15] 05. Shameboy - Strobot (Netsky Remix) [Radar]
[09:20] 06. ?
[11:00] 07. Lenzman - Masquerade [Metalheadz]
[13:40] 08. The Brookers Brothers feat. Robert Owens - Beautiful [Breakbeat Kaos]
[15:50] 09. Matrix & Futurebound - American Beauty [Metro Recordings, Viper Recordings]
[18:40] 10. Phetsta - Prism [Technique Recordings]
[20:30] 11. Drumsound & Bassline Smith - Freak [New State Music]
[22:50] 12. Nero - Guilt (Culture Shock Remix) [MTA]
[25:20] 13. Breakage feat. Jess Mills - Fighting fire (Loadstar Remix) [Digital Soundboy]
[27:35] 14. Loadstar (Aka Xample & Lomax) - Link to The Past [Ram Records]
[29:40] 15. Loadstar - Space Between [Ram Records]
[31:00] 16. BLOKHE4D - Kisses & Lies [AEI]
[32:50] 17. Noisia - Friendly Intentions [Vision]
[34:40] 18. Dirtyphonics - Quarks [Audio Porn]
[37:50] 19. Benny Benassi feat. T-Pain - Electroman (Dirtyphonics Club Edit) [Ultra Records]
[41:40] 20. iSQUARE - Hey Sexy Lady (Skrillex Dubstep Remix) [Interscope]
[46:10] 21. ?
[47:30] 22. ?
[51:20] 23. 16 bit - FRZR9000 [MTA Records]
[52:30] 24. ?
[54:20] 25. ?
[55:55] 26. Flux Pavilion - Bass Canon [Circus / UKF]
[59:10] 26. Nero - Me & You [MTA Records]
INFO:
Dj_Tapolsky_Grae_Drum_N_Bass.mp3

tapolsky - time2bass 018 | 11-05-2011 (live + без голоса)

http://fs104.www.ex.ua/get/10170756/018_tapolsky_time2bass-11-05-2011-live-kissfmua.jpg
Audio
Format : MP3
Mode : Joint stereo
Mode extension : MS Stereo
Duration : 1h 0mn
Bit rate mode : Constant
Bit rate : 224 Kbps
Channel(s) : 2 channels
Sampling rate : 44.1 KHz
Compression mode : Lossy
Stream size : 96.2 MiB (100%)
Writing library : LAME3.98.2
Треклист
большая часть треков звучали в этом миксе Dj Tapolsky - Грає Drum-N-Bass (2011), ориентируйтесь по второй половине треклиста...
INFO:
Файл без голоса, весь выпуск:
Tapolsky_-_[Voiceless]_Time2Bass_May_11th_2011_256kbps.mp3
Файл c голосом, весь выпуск (live):
018_tapolsky_time2bass-11-05-2011-live-kissfmua.mp3
В выпуске прозвучал дабстеп микс, из хорошо известных в данный момент, любимых композиций Анатолия. Приятного всем прослушивания!

tapolsky - time2bass 019 | 18-05-2011 (live + без голоса)

http://fs106.www.ex.ua/get/10410072/019_tapolsky_time2bass-18-05-2011-live-kissfmua.jpg
Audio
Format : MP3
Mode : Joint stereo
Mode extension : MS Stereo
Duration : 1h 1mn
Bit rate mode : Constant
Bit rate : 224 Kbps
Channel(s) : 2 channels
Sampling rate : 44.1 KHz
Compression mode : Lossy
Stream size : 98.2 MiB (100%)
Writing library : LAME3.98.2
Треклист
N/A
INFO:
Файл без голоса, весь выпуск:
019_Tapolsky_-_[Voiceless]_Time2Bass_May_18th_2011_256kbps.mp3
Файл c голосом, весь выпуск (live):
019_tapolsky_time2bass-18-05-2011-live-kissfmua.mp3
В выпуске прозвучал дабстеп микс. Толик немного опоздал на эфир, поэтому с голосом стартует примерно с 19:30 минуты микса. Приятного всем прослушивания!

tapolsky - time2bass 020 | Conceptual non drum'n'bass mix 2 | 25-05-2011 (Live)

http://fs91.www.ex.ua/get/10653338/020_tapolsky_time2bass-25-05-2011-live-kissfmua.jpg
Audio
Format : MP3
Mode : Joint stereo
Mode extension : MS Stereo
Duration : 1h 0mn
Bit rate mode : Constant
Bit rate : 224 Kbps
Channel(s) : 2 channels
Sampling rate : 44.1 KHz
Compression mode : Lossy
Stream size : 96.3 MiB (100%)
Writing library : LAME3.98.2
Треклист
01. Four Tet - Love Cry
02. Burial - Stolen Dog
03. Burial - Street Halo
04. Four Tet - Sing
05. Sascha Funke - Mango (Paul Kalkbrenner Re-Edit)
05. Onra - The Anthem
06. Onra - Take A Ride
07. Onra - Relax In Mui Ne
08. Onra - Full Backpack
09. Onra - I Wanna Go Back / Дельфин - Весна (Acapella)
10. Flying Lotus - Melt!
11. ID
12. ID (Два очень коротких кусочка. Пока не разобрано. Скорее всего тоже что-то от Onra или Flying Lotus)
13. Onra - Welcome To Viet Nam
14. Harmonic 313 - Arc light
15. Modeselektor - Tetrispack
16. Mr. Oizo - Ringardos
17. Sebastien Tellier & Mr. Oizo - Plug It
18. Mr. Oizo - Skatesteak
19. Apparat and Raz Ohara - Holdon (Modeselektor remix)
INFO:
Файл c голосом, весь выпуск (live):
020_tapolsky_time2bass-25-05-2011-live-kissfmua.mp3
В выпуске прозвучал специальный, не форматный, микс от Анатолия из разнообразной электроники (не драм-н-бейс и не дабстеп) смеси жанров Indie, Downtempo, House, IDM, Dream, и тому подобные печеньки, в общем все самое красивое и атмосферное. Приятного прослушивания!

tapolsky - time2bass 021 | 01-06-2011 (Live + без голоса)

http://fs104.www.ex.ua/get/10896265/021_tapolsky_time2bass-01-06-2011-live-kissfmua.jpg
Audio
Format : MP3
Mode : Joint stereo
Mode extension : MS Stereo
Duration : 1h 0mn
Bit rate mode : Constant
Bit rate : 224 Kbps
Channel(s) : 2 channels
Sampling rate : 44.1 KHz
Compression mode : Lossy
Stream size : 96.6 MiB (100%)
Writing library : LAME3.98.2
Треклист
N/A
INFO:
Файл c голосом, весь выпуск (live):
021_tapolsky_time2bass-01-06-2011-live-kissfmua.mp3
Файл без голоса, весь выпуск:
021_[Voiceless]_Tapolsky_-_Time2Bass_June_1th_2011_256kbps.mp3
В выпуске прозвучал Dubstep/Drumstep микс из свежайшего винилового материала Анатолия. Первая половина более красивый и лирический дабстеп, во второй же половине сплошные танцпольные боевики! Готовитесь выпуск жаркий, как и наступившее лето, с чем всех и поздравляю! Приятного прослушивания!

tapolsky - time2bass 022 | 08-06-2011 (Live + без голоса)

http://fs103.www.ex.ua/get/11161713/022_tapolsky_time2bass-08-06-2011-live-kissfmua.jpg
Audio
Format : MP3
Mode : Joint stereo
Mode extension : MS Stereo
Duration : 1h 0mn
Bit rate mode : Constant
Bit rate : 224 Kbps
Channel(s) : 2 channels
Sampling rate : 44.1 KHz
Compression mode : Lossy
Stream size : 97.0 MiB (100%)
Writing library : LAME3.98.2
Треклист
N/A
INFO:
Файл c голосом, весь выпуск (live):
022_tapolsky_time2bass-08-06-2011-live-kissfmua.mp3
Файл без голоса, весь выпуск:
022_[Voiceless]_Tapolsky_-_Time2Bass_June_8th_2011_256kbps.mp3
В выпуске прозвучал House/Dubstep/Drum'n'Bass микс из свежего муз.материала Анатолия. Приятного прослушивания!

tapolsky - time2bass 023 | 15-06-2011 (Live + без голоса)

http://fs103.www.ex.ua/show/11441124/11441124.jpg?800
Audio
Format : MP3
Mode : Joint stereo
Mode extension : MS Stereo
Duration : 59mn 54s
Bit rate mode : Constant
Bit rate : 224 Kbps
Channel(s) : 2 channels
Sampling rate : 44.1 KHz
Compression mode : Lossy
Stream size : 95.9 MiB (100%)
Writing library : LAME3.98.
Треклист
N/A
INFO:
Файл c голосом, весь выпуск (live):
023_tapolsky_time2bass-15-06-2011-live-kissfmua.mp3
Файл без голоса, весь выпуск:
023_[Voiceless]_Tapolsky_-_Time2Bass_June_15th_2011_256kbps.mp3
В выпуске прозвучал Dubstep/Fidget House микс. Информация о предстоящем Global Gathering 2011, розыгрыш билетов на фестиваль. Приятного прослушивания!

tapolsky - time2bass 024 | 22-06-2011 (Live + без голоса)

http://fs92.www.ex.ua/get/11716655/024_tapolsky_time2bass-22-06-2011-live-kissfmua.jpg
Audio
Format : MP3
Mode : Joint stereo
Mode extension : MS Stereo
Duration : 1h 0mn
Bit rate mode : Constant
Bit rate : 224 Kbps
Channel(s) : 2 channels
Sampling rate : 44.1 KHz
Compression mode : Lossy
Stream size : 96.7 MiB (100%)
Треклист
N/A
INFO:
Файл c голосом, весь выпуск (live):
024_tapolsky_time2bass-22-06-2011-live-kissfmua.mp3
Файл без голоса, весь выпуск:
024_[Voiceless]_Tapolsky_-_Gitler_Kaput_Mix_Time2Bass_June_22th_2011_256kbps.mp3
В выпуске прозвучал Deep, Futuristic minimal Drum & Bass микс. Легкий, глубокий и приятный саунд в этот раз в связи с объявленным Днем траура (22 июня 1941 года нацистская Германия напала на Советский Союз, который понес самые большие людские потери во Второй мировой войне). На киссфм в эфире целый день Вы могли слишать только спокойную музыку. Приятного прослушивания!

tapolsky - time2bass 025 | 29-06-2011 (Live + без голоса)

http://fs136.www.ex.ua/get/12106921/025_tapolsky_time2bass-29-06-2011-live-kissfmua.jpg
Audio
Format : MP3
Mode : Joint stereo
Mode extension : MS Stereo
Duration : 1h 0mn
Bit rate mode : Constant
Bit rate : 224 Kbps
Channel(s) : 2 channels
Sampling rate : 44.1 KHz
Compression mode : Lossy
Stream size : 97.4 MiB (100%)
Треклист
N/A
INFO:
Файл c голосом, весь выпуск (live):
025_tapolsky_time2bass-29-06-2011-live-kissfmua.mp3
Файл без голоса, весь выпуск:
025_[Voiceless]_Tapolsky_-_Time2Bass_June_29th_2011_256kbps.mp3
В выпуске прозвучал микс преимущественно из известного, хорошо проверенного танцполами драм-н-бейса, приуроченный вечеринке которая пройдет в пятницу в киевском клубе Forsage "GLOBAL GATHERING 2011 PREPARTY. DAY 1". Приятного прослушивания!

Описание:
Time 2 Dubstep выходит в рамках еженедельного радиошоу DJ Tapolsky Time 2 Bass (пол часа Drum'n'Bass, пол часа Dubstep). Время выхода в эфир: каждую среду с 22 до 23 (Время Киевское) на радиостанции Kiss FM

Внимание: К некоторым миксам треклистов нету

Звук: MP3
Битрейт: 192-256 кб/с (более подробно под каждым спойлером)
Продолжительность: 01:19:45:48

Релиз группа:
/rgroup/91.jpg
РаздающийПоследний раз был здесь 255d 02:03:15 назад
Размер4.37 GB (4,693,967,710 байт)
Добавлен2011-12-14 17:09:34
Скачан141 раз
BONUSDownload на 50% не учитывается!

место под вашу рекламу

Комментарии

  1. 1
    Не в сети rosse - Пользователь (2012-01-13 14:19:22) upload 2.621 TB, download 3.813 TB, 0.69
    РЕСПЕКТОС
Всего 1 на 1 страницах по 10 на каждой странице.

vkontakte Last.fm Twitter Одноклассники P.S.Lan
reklama




Загрузка...