Привет, друг!!!

  • Если что-то не получается
  • Алексей (Skype)
  • katafalk555
  • Помощь по форуму
  • 473868046 Женя
  • Общие вопросы
  • Татьяна (QIP)
  • User ID: tarantinka3
загрузка...

Джереми Кларксон - Заряженные / Clarkson: Powered Up (2011) 720p BDRip

Документ. фильмы HD-VIDEOСкачать: Джереми Кларксон - Заряженные / Clarkson: Powered Up (2011) 720p BDRip

Проверен
Рейтинг50
              
Обложка
Джереми Кларксон - Заряженные / Clarkson: Powered Up (2011) 720p BDRip
Описание
Информация о фильме
Название: Джереми Кларксон - Заряженные
Оригинальное название: Clarkson: Powered Up
Жанр: Документальный
Страна: Великобритания
Год выпуска: 2011
Режиссер: Брайан Клейн
В ролях: Джереми Кларксон

О фильме: Ведущий Топ Гир опробует во Франции: McLaren MP4-12C, Lamborghini Gallardo Spyder, Jaguar E-Type и Bentley. Новый сезон Top Gear еще снимается, поэтому Джереми отправился на гоночный трек Paul Ricard, чтобы снять небольшой бонус от себя.Он заявляет, что в фильме мы увидим много знакомых лиц, так как без автомобильных звёзд не обошлось. Например, гонщик формулы-1 Карун Чандок великолепно провёл время на семиступенчатом 911 GT3.Скажем, что Кларксона не бывает много, его тест-драйвы хочется смотреть постоянно. А когда заканчиваются автомобили, хочется, чтобы производители срочно выпустили новые модели, либо Кларксон сам нашел что-то экзотичное и интересное.
http://www.kinopoisk.ru/rating/648467.gif

Личная оценка: 10 из 10
Продолжительность: 01:06:32
Качество видео: 720p BDRip
Видео
Кодек: H.264
Размер кадра: 1280x720
Битрейт: 5732 кб/с
Аудио#1: Русский, 48 kHz, DTS, 3/2 (L,C,R,l,r) + LFE ch, ~1510.00 kbps Одноголосый закадровый | Jetvis Studio
Аудио#2: Английский, 48 kHz, DTS, 3/2 (L,C,R,l,r) + LFE ch, ~1510.00 kbps Оригинал

Релиз группа:
http://img.pslan.com/uploads/6f6a4fa1cedc4a11a945768c95b33892.jpg
Скриншоты[Скриншот №1] - Джереми Кларксон - Заряженные / Clarkson: Powered Up (2011) 720p BDRip  [Скриншот №2] - Джереми Кларксон - Заряженные / Clarkson: Powered Up (2011) 720p BDRip  [Скриншот №3] - Джереми Кларксон - Заряженные / Clarkson: Powered Up (2011) 720p BDRip
РаздающийПоследний раз был здесь 726d 12:32:24 назад
Размер4.15 GB (4,455,851,327 байт)
Добавлен2012-02-11 16:15:39
Скачан147 раз
BONUSDownload на 40% не учитывается!

место под вашу рекламу

Комментарии

  1. 1
    Не в сети PheNoM - Super User (2012-02-11 16:20:18) upload 4.490 TB, download 369.63 kB, 13,042,896.50
    http://img.pslan.com/uploads/20d767d301fe34baf5deeafe04b2af0f.gif
    Доп. информация
    Сохранены оригинальные чаптеры как на Blu-ray.
    MediaInfo
    Общее
    Уникальный идентификатор : 231932436819155781738392101597119568617 (0xAE7C9000F2C9AB4BA6185E6BAB94DAE9)
    Полное имя : E:\Torrents releases\Jeremy.Clarkson.Powered.Up.2011.720p.BDRip.Eng.Rus.mkv
    Формат : Matroska
    Версия формата : Version 2
    Размер файла : 4,15 Гбайт
    Продолжительность : 1 ч. 6 м.
    Общий поток : 8930 Кбит/сек
    Название фильма : Jeremy Clarkson - Powered Up
    Дата кодирования : UTC 2012-02-03 10:52:39
    Программа кодирования : mkvmerge v4.4.0 ('Die Wiederkehr') сборка от Oct 31 2010 21:52:48
    Библиотека кодирования : libebml v1.0.0 + libmatroska v1.0.0

    Видео
    Идентификатор : 1
    Формат : AVC
    Формат/Информация : Advanced Video Codec
    Профиль формата : High@L4.1
    Параметр CABAC формата : Да
    Параметр ReFrames формата : 5 кадров
    Идентификатор кодека : V_MPEG4/ISO/AVC
    Продолжительность : 1 ч. 6 м.
    Битрейт : 5732 Кбит/сек
    Ширина : 1280 пикселей
    Высота : 720 пикселей
    Соотношение сторон : 16:9
    Режим частоты кадров : Переменный
    Частота кадров : 25,000 кадров/сек
    Цветовое пространство : YUV
    Субдискретизация насыщенности : 4:2:0
    Битовая глубина : 8 бит
    Тип развёртки : Прогрессивная
    Бит/(Пиксели*Кадры) : 0.249
    Размер потока : 2,66 Гбайт (64%)
    Библиотека кодирования : x264 core 116 r2042 178455c
    Настройки программы : cabac=1 / ref=5 / deblock=1:0:0 / analyse=0x3:0x113 / me=umh / subme=8 / psy=1 / psy_rd=1.00:0.00 / mixed_ref=1 / me_range=16 / chroma_me=1 / trellis=1 / 8x8dct=1 / cqm=0 / deadzone=21,11 / fast_pskip=1 / chroma_qp_offset=-2 / threads=4 / sliced_threads=0 / nr=0 / decimate=1 / interlaced=0 / bluray_compat=0 / constrained_intra=0 / bframes=3 / b_pyramid=2 / b_adapt=2 / b_bias=0 / direct=3 / weightb=1 / open_gop=0 / weightp=2 / keyint=250 / keyint_min=25 / scenecut=40 / intra_refresh=0 / rc_lookahead=50 / rc=crf / mbtree=1 / crf=20.0 / qcomp=0.60 / qpmin=0 / qpmax=69 / qpstep=4 / ip_ratio=1.41 / aq=1:1.00
    Язык : English
    Default : Да
    Forced : Нет

    Аудио #1
    Идентификатор : 2
    Формат : DTS
    Формат/Информация : Digital Theater Systems
    Идентификатор кодека : A_DTS
    Продолжительность : 1 ч. 6 м.
    Вид битрейта : Постоянный
    Битрейт : 1510 Кбит/сек
    Каналы : 6 каналов
    Расположение каналов : Front: L C R, Side: L R, LFE
    Частота : 48,0 КГц
    Битовая глубина : 24 бит
    Метод сжатия : С потерями
    Размер потока : 718 Мбайт (17%)
    Язык : Russian
    Default : Да
    Forced : Нет

    Аудио #2
    Идентификатор : 3
    Формат : DTS
    Формат/Информация : Digital Theater Systems
    Идентификатор кодека : A_DTS
    Продолжительность : 1 ч. 6 м.
    Вид битрейта : Постоянный
    Битрейт : 1510 Кбит/сек
    Каналы : 6 каналов
    Расположение каналов : Front: L C R, Side: L R, LFE
    Частота : 48,0 КГц
    Битовая глубина : 16 бит
    Метод сжатия : С потерями
    Задержка видео : 11 мс.
    Размер потока : 718 Мбайт (17%)
    Язык : English
    Default : Нет
    Forced : Нет

    Меню
    00:00:00.000 : en:Chapter 00
    00:02:10.000 : en:Chapter 01
    00:04:54.600 : en:Chapter 02
    00:08:48.160 : en:Chapter 03
    00:10:08.200 : en:Chapter 04
    00:19:14.200 : en:Chapter 05
    00:26:10.600 : en:Chapter 06
    00:31:30.000 : en:Chapter 07
    00:38:59.080 : en:Chapter 08
    00:42:52.640 : en:Chapter 09
    00:45:16.760 : en:Chapter 10
    00:54:14.280 : en:Chapter 11
    01:00:55.560 : en:Chapter 12
    01:03:09.240 : en:Chapter 13
    01:05:28.640 : en:Chapter 14

    Последний раз редактировалось PheNoM в 2012-02-11 16:23:04

  2. 2
    Не в сети Akirus - Super User (2012-02-11 16:54:05) upload 4.507 TB, download 881.09 GB, 5.24
    русский язик есть ?
  3. 3
    Не в сети 77447744 - Super User (2012-02-11 17:00:28) upload 13.149 TB, download 1.779 TB, 7.39
    автору  спасибо.
  4. 4
    Не в сети PheNoM - Super User (2012-02-11 17:57:57) upload 4.490 TB, download 369.63 kB, 13,042,896.50
    Akirus писал
    русский язик есть ?

    Описание для кого делают? русский есть, но некоторые места без перевода =(
Всего 4 на 1 страницах по 10 на каждой странице.

vkontakte Last.fm Twitter Одноклассники P.S.Lan
reklama




Загрузка...