Привет, друг!!!

  • Если что-то не получается
  • Алексей (Skype)
  • katafalk555
  • Помощь по форуму
  • 473868046 Женя
  • Общие вопросы
  • Татьяна (QIP)
  • User ID: tarantinka3
загрузка...

Торрент был удален.

Торрент удален по причине «Претензия правообладателя.».
место под вашу рекламу

Комментарии

  1. 1
    Не в сети EROR_404Donor - One Love, One Life, One United| (2012-02-24 11:58:22) upload 2.434 TB, download 10.12 GB, 246.25
    Размер кадра: 320х240. почему такие скрины - не знаю
    MediaInfo
    ...\Eta.durackaja.ljubov.2011.by.EROR_404.mp4
       General
          Complete name : ...\Eta.durackaja.ljubov.2011.by.EROR_404.mp4
          Format : MPEG-4
          Format profile : Base Media / Version 2
          Codec ID : mp42
          File size : 734 MiB
          Duration : 1h 58mn
          Overall bit rate : 869 Kbps
          Encoded date : UTC 2012-02-18 19:56:54
          Tagged date : UTC 2012-02-18 19:57:19
          Writing application : mp4creator 1.4.4
       Video #1
          ID : 1
          Format : AVC
          Format/Info : Advanced Video Codec
          Format profile : Baseline@L1.3
          Format settings, CABAC : No
          Format settings, ReFrames : 2 frames
          Codec ID : avc1
          Codec ID/Info : Advanced Video Coding
          Duration : 1h 58mn
          Bit rate mode : Variable
          Bit rate : 741 Kbps
          Width : 320 pixels
          Height : 240 pixels
          Display aspect ratio : 4:3
          Original display aspect ratio : 4:3
          Frame rate mode : Constant
          Frame rate : 25.000 fps
          Color space : YUV
          Chroma subsampling : 4:2:0
          Bit depth : 8 bits
          Scan type : Progressive
          Bits/(Pixel*Frame) : 0.386
          Stream size : 626 MiB (85%)
          Language : English
          Encoded date : UTC 2012-02-18 19:56:54
          Tagged date : UTC 2012-02-18 19:57:14
       Audio #2
          ID : 2
          Format : AAC
          Format/Info : Advanced Audio Codec
          Format profile : LC
          Codec ID : 40
          Duration : 1h 58mn
          Bit rate mode : Variable
          Bit rate : 125 Kbps
          Maximum bit rate : 218 Kbps
          Channel(s) : 2 channels
          Channel positions : Front: L R
          Sampling rate : 44.1 KHz
          Compression mode : Lossy
          Stream size : 106 MiB (14%)
          Language : English
          Encoded date : UTC 2012-02-18 19:57:14
          Tagged date : UTC 2012-02-18 19:57:19
Всего 1 на 1 страницах по 10 на каждой странице.

vkontakte Last.fm Twitter Одноклассники P.S.Lan
reklama




Загрузка...