Привет, друг!!!

  • Если что-то не получается
  • Алексей (Skype)
  • katafalk555
  • Помощь по форуму
  • 473868046 Женя
  • Общие вопросы
  • Татьяна (QIP)
  • User ID: tarantinka3
загрузка...

Торрент был удален.

Торрент удален по причине «Претензия правообладателя.».
место под вашу рекламу

Комментарии

  1. 1
    Не в сети EROR_404Donor - One Love, One Life, One United| (2012-02-26 00:22:56) upload 2.434 TB, download 10.12 GB, 246.25
    Размер кадра: 320х240. почему такие скрины - не знаю
    MediaInfo
    ...\Group.Sex.by.EROR_404.mp4
       General
          Complete name : ...\Group.Sex.by.EROR_404.mp4
          Format : MPEG-4
          Format profile : Base Media / Version 2
          Codec ID : mp42
          File size : 589 MiB
          Duration : 1h 32mn
          Overall bit rate : 892 Kbps
          Encoded date : UTC 2012-02-25 11:43:58
          Tagged date : UTC 2012-02-25 11:44:17
          Writing application : mp4creator 1.4.4
       Video #1
          ID : 1
          Format : AVC
          Format/Info : Advanced Video Codec
          Format profile : Baseline@L1.3
          Format settings, CABAC : No
          Format settings, ReFrames : 2 frames
          Codec ID : avc1
          Codec ID/Info : Advanced Video Coding
          Duration : 1h 32mn
          Bit rate mode : Variable
          Bit rate : 765 Kbps
          Width : 320 pixels
          Height : 240 pixels
          Display aspect ratio : 4:3
          Frame rate mode : Constant
          Frame rate : 25.000 fps
          Color space : YUV
          Chroma subsampling : 4:2:0
          Bit depth : 8 bits
          Scan type : Progressive
          Bits/(Pixel*Frame) : 0.398
          Stream size : 505 MiB (86%)
          Language : English
          Encoded date : UTC 2012-02-25 11:43:58
          Tagged date : UTC 2012-02-25 11:44:15
       Audio #2
          ID : 2
          Format : AAC
          Format/Info : Advanced Audio Codec
          Format profile : LC
          Codec ID : 40
          Duration : 1h 32mn
          Bit rate mode : Variable
          Bit rate : 126 Kbps
          Maximum bit rate : 155 Kbps
          Channel(s) : 2 channels
          Channel positions : Front: L R
          Sampling rate : 44.1 KHz
          Compression mode : Lossy
          Stream size : 82.9 MiB (14%)
          Language : English
          Encoded date : UTC 2012-02-25 11:44:15
          Tagged date : UTC 2012-02-25 11:44:17[/spoiiler]
  2. 2
    Не в сети Demid - Super User (2012-02-26 00:44:56) upload 46.476 TB, download 196.27 GB, 242.48
    Простите, Вы инструктор, и не знаете как сделать правильные скрины?
  3. 3
    Не в сети EROR_404Donor - One Love, One Life, One United| (2012-02-26 06:42:05) upload 2.434 TB, download 10.12 GB, 246.25
    я знаю как сделать правильные скрины, но они не хотят такими становится. если скрины для HD, то все норм получается, а тут что попало. Нажимаю в кмплеере Ctrl+E потом сохраняю. http://www.pslan.com/details.php?returnto=%2Fmytorrents.php&id=196197 http://www.pslan.com/details.php?returnto=%2Fmytorrents.php%3Fpage%3D1&id=194126 тут вот всё норм, а с релами в мобиле вот так получается
Всего 3 на 1 страницах по 10 на каждой странице.

vkontakte Last.fm Twitter Одноклассники P.S.Lan
reklama




Загрузка...