Привет, друг!!!

  • Если что-то не получается
  • Алексей (Skype)
  • katafalk555
  • Помощь по форуму
  • 473868046 Женя
  • Общие вопросы
  • Татьяна (QIP)
  • User ID: tarantinka3
загрузка...

Торрент был удален.

Торрент удален по причине «Претензия правообладателя.».
место под вашу рекламу

Комментарии

  1. 1
    Не в сети ziher_ck - Super User (2012-04-02 22:44:42) upload 5.994 TB, download 117.32 GB, 52.32
    http://img.pslan.com/uploads/66f6327dc9edc5bbed9230c9251ba588.gifhttp://img.pslan.com/uploads/f1701b42b2fb81adee2ae9cf81abf433.gifhttp://img.pslan.com/uploads/980df1c72a560c2e8684c369ebcbd968.gif

    мини F.A.Q. по использованию панельки
    Нажми на кнопку - получишь результат
  2. 2
    Не в сети exn - Super User (2012-04-03 04:18:49) upload 1.324 TB, download 632.71 GB, 2.14
    как вам фильм ?

    640 маловато.. или мне так кажется, скрины какие-то мелкие мелкие
  3. 3
    Не в сети ziher_ck - Super User (2012-04-03 10:43:45) upload 5.994 TB, download 117.32 GB, 52.32
    exn писал
    как вам фильм ?

    640 маловато.. или мне так кажется, скрины какие-то мелкие мелкие

    Уважаемый, вы о чем?
    МедиаИнфо
    General
    Complete name                    : D:\incoming\2006 - Подсолнух\sunflower.avi
    Format                           : AVI
    Format/Info                      : Audio Video Interleave
    File size                        : 1.74 GiB
    Duration                         : 1h 57mn
    Overall bit rate                 : 2 125 Kbps
    Writing application              : VirtualDubMod 1.5.10.2 (build 2540/release)
    Writing library                  : VirtualDubMod build 2540/release

    Video
    ID                               : 0
    Format                           : MPEG-4 Visual
    Format profile                   : Advanced Simple@L5
    Format settings, BVOP            : Yes
    Format settings, QPel            : No
    Format settings, GMC             : No warppoints
    Format settings, Matrix          : Default (MPEG)
    Codec ID                         : XVID
    Codec ID/Hint                    : XviD
    Duration                         : 1h 57mn
    Bit rate                         : 1 215 Kbps
    Width                            : 640 pixels
    Height                           : 352 pixels
    Display aspect ratio             : 16:9
    Frame rate                       : 23.976 fps
    Color space                      : YUV
    Chroma subsampling               : 4:2:0
    Bit depth                        : 8 bits
    Scan type                        : Progressive
    Compression mode                 : Lossy
    Bits/(Pixel*Frame)               : 0.225
    Stream size                      : 1 017 MiB (57%)
    Writing library                  : XviD 1.1.0 (UTC 2005-11-22)

    Audio #1
    ID                               : 1
    Format                           : AC-3
    Format/Info                      : Audio Coding 3
    Mode extension                   : CM (complete main)
    Codec ID                         : 2000
    Duration                         : 1h 57mn
    Bit rate mode                    : Constant
    Bit rate                         : 448 Kbps
    Channel(s)                       : 6 channels
    Channel positions                : Front: L C R, Side: L R, LFE
    Sampling rate                    : 48.0 KHz
    Bit depth                        : 16 bits
    Compression mode                 : Lossy
    Stream size                      : 375 MiB (21%)
    Alignment                        : Split accross interleaves
    Interleave, duration             : 42 ms (1.00 video frame)
    Interleave, preload duration     : 500 ms

    Audio #2
    ID                               : 2
    Format                           : AC-3
    Format/Info                      : Audio Coding 3
    Mode extension                   : CM (complete main)
    Codec ID                         : 2000
    Duration                         : 1h 57mn
    Bit rate mode                    : Constant
    Bit rate                         : 448 Kbps
    Channel(s)                       : 6 channels
    Channel positions                : Front: L C R, Side: L R, LFE
    Sampling rate                    : 48.0 KHz
    Bit depth                        : 16 bits
    Compression mode                 : Lossy
    Stream size                      : 375 MiB (21%)
    Alignment                        : Split accross interleaves
    Interleave, duration             : 42 ms (1.00 video frame)
    Interleave, preload duration     : 500 ms

    Кликаете по скринам пр. кнопкой мыши -> откр. в новой вкладке и там будет прописан размер картинки/скрина 640х352
Всего 3 на 1 страницах по 10 на каждой странице.

vkontakte Last.fm Twitter Одноклассники P.S.Lan
reklama




Загрузка...