Привет, друг!!!

  • Если что-то не получается
  • Алексей (Skype)
  • katafalk555
  • Помощь по форуму
  • 473868046 Женя
  • Общие вопросы
  • Татьяна (QIP)
  • User ID: tarantinka3
загрузка...

Трансформеры: Трилогия / Transformers Trilogy (2007/2009/2011) 720p BDRip | Дубляж | PSLanLaboratory

Иностранное кино HD-VIDEOСкачать: Трансформеры: Трилогия / Transformers Trilogy (2007/2009/2011) 720p BDRip | Дубляж | PSLanLaboratory

Проверен
Рейтинг0
              
Обложка
Трансформеры: Трилогия / Transformers Trilogy (2007/2009/2011) 720p BDRip | Дубляж | PSLanLaboratory
Описание
Информация о фильме
Название: Трансформеры: Трилогия
Оригинальное название: Transformers Trilogy
Жанр: фантастика, боевик, триллер, приключения
Страна: США
Год выпуска: 2007/2009/2011
Режиссер: Майкл Бэй

Трансформеры  / Transformers (2007) 720p BDRip | Дубляж | PSLanLaboratory

http://img.pslan.com/uploads/c77d49f7ffc42851239d086dd9a91450.jpg    
Информация о фильме
Название: Трансформеры
Оригинальное название: Transformers
Жанр: фантастика, боевик, триллер, приключения
Страна: США
Год выпуска: 2007
Режиссер: Майкл Бэй
В ролях: Шиа ЛаБеф, Меган Фокс, Джош Дюамель, Тайриз Гибсон, Рэйчел Тейлор, Энтони Андерсон, Джон Войт, Джон Туртурро, Майкл О`Нейлл, Кевин Данн, Джули Уайт, Амори Ноласко, Зак Уорд, Luis Echagarruga, Pat Mulderrig, Brian Shehan, Michael Trisler, Ashkan Kashanchi, Rizwan Manji, Уильям Морган Шеппард, С.Дж. Томасон

О фильме: В течение многих столетий две расы роботов-инопланетян – Автоботы и Десептиконы – вели войну, ставкой в которой была судьба Bселенной. И вот война докатилась до Земли. В то время, когда силы зла ищут ключ к верховной власти, наш последний шанс на спасение находится в руках юного землянина. Единственное, что стоит между несущими зло Десептиконами и высшей властью – это ключ, находящийся в руках простого парнишки.

Обычный подросток, Сэм Уитвикки озабочен повседневными хлопотами – школа, друзья, машины, девочки. Не ведая о том, что он является последним шансом человечества на спасение, Сэм вместе со своей подругой Микаэлой оказываются вовлеченными в противостояние Автоботов и Десептиконов. Только тогда Сэм понимает истинное значение семейного девиза Уитвикки – "без жертв не бывает победы!"

http://imdb.snick.ru/ratefor/03/tt0418279.png http://rating.kinopoisk.ru/81288.gif http://www.hdclub.ua/button/movie/552.png http://www.hdclub.ua/button/movie-disc/626.png

Знаете ли вы, что...
   * Слоган к фильму «Наш мир. Их война» должен был появиться на постерах к картине «Чужой против хищника», но в самый последний момент был заменен на «Кто бы не победил… мы проиграем».
     * По словам создателей спецэффектов из ILM на рендеринг каждого кадра с CGI-анимацией тратилось около 38 часов. Прежним рекордом владела студия Weta Workshop, в ходе работы над фильмом «Властелин колец: Две башни» тратившая на обработку кадра по 20 часов.
     * Продюсер картины Дон Мерфи после общения с фанатами френчайза, решил прибегнуть к использованию хорошо знакомых голосов из сериала «Трансформеры». Ветераны Питер Каллен и Фрэнк Уелкер, голосами которых разговаривали лидеры трансформеров – Оптимус Прайм и Мегатрон, прослушивались персонально самим Майклом Бэем, боявшимся, что их постаревшие голоса могут не подойти. Опасения оправдались ровно на половину: голос Каллена был утвержден, а голос Уелкера был заменен на голос Хьюго Уивинга, известного по роли агента Смита в «Матрице».
     * В первоначальный вариант сценария была включена Арси (Arcee), считавшаяся одним из самых женственных автоботов, что не вызвало ни малейшего ажиотажа среди фанатов. Вскоре Арси исчезла из сценария и была заменена на Айронхайда (Ironhide).
     * В мультипликационном варианте Бамблби трансформировался из автомобиля Фольксваген Жук, однако в киноверсии Фольксваген заменили на Шевроле Камаро. Сделано это было по желанию Майкла Бэя, боявшегося сравнения персонажа с другим известным «автомобильным киножуком» - Херби. Фанаты оригинального сериала наверняка заметят желтый Фольксваген в сцене покупки Сэмом автомобиля.
     * Майкл Бэй, которого пригласили режиссировать фильм, сначала счел будущую картину «глупой игрушечной историей», но вскоре передумал, после того, как вспомнил о своем первоначальном отношении к проекту «Индиана Джонс», ставшему в 1981 году настоящим хитом проката. В апреле 2005 года он был официально заявлен режиссером проекта, обогнав кандидата Роланда Эммериха.
     * Первый комикс о трансформерах был выпущен в 1984 году компанией Marvel Comics. Первоначально планировалось всего четыре выпуска.
     * Продюсер фильма Стивен Спилберг не заплатил ни одному актеру больше 70.000 долларов, пообещав высокие гонорары в последующих сиквелах.
     * Над спецэффектами фильма работала команда из 80-ти человек.
     * В картине Майкла Бэя Оптимус Прайм предстает в виде тягача Peterbilt 379. В ранней картине исполнительного продюсера «Трансформеров» Стивена Спилберга «Дуэль» (1971) главным действующим героем также был тягач Peterbilt 281.
     * Звуки трансформации позаимствованы из одноименного мультсериала 1984 года.
     * Согласно высказываниям Лоренцо ди Бонавентуры, все трансформации роботов были тщательно просчитаны математически. Таким образом, внимательные зрители могут понять, куда уходит каждая составная часть робота при обратной трансформации в транспортное средство.
     * Мегатрону решили сделать лицо, мало напоминающее человеческое, чтобы придать данному персонажу еще более грозный вид.
     * Пушка Айронхайда состоит из 10 тысяч деталей.
     * В первой версии сценария фигурировал персонаж Рэведж (Ravage – уничтожение), роботоподное животное, сражающееся за Десептиконов. Позднее от Рэведжа избавились и включили в сценарий другое трансформирующееся существо - Скорпонока. Именно Скорпонок атакует выживших американских военных в одной из сцен первой половины картины.
     * В первых вариантах сценария был прописан персонаж Юникрон, представляющий собой планету-трансформер. Ожидается, что этот персонаж получит право на кинематографическую жизнь в сиквеле.
     * В фильме представлено 8 десептиконов и 5 автоботов. На сей шаг авторы сценария пошли намеренно, чтобы подчеркнуть работу автоботов в команде, а также показать, насколько опасна угроза завоевания нашей планеты десептиконами.
     * Еще один момент, перекочевавший из сериала в фильм,- глаза трансформеров: cиние у автоботов, и красные у десептиконов.
     * В комнате Сэма можно увидить плакат рок-группы Linkin Park, именно сингл этой группы What I've Donе является темой для фильма.
     * Ровно на 60 минуте, парень бегущий с камерой к месту падения метеорита кричит «Я такой крутизны еще не видел, все вокруг взрывается, это точно в сто раз круче армагеддона». Фильм Армагеддон снял также Майкл Бэй.
     * Во время синхронного разворота автоботов на шоссе, видно, что Оптимус начинает его первым и за ним встает Джаз. Однако потом Оптимус Прайм едет последним.
     * По данному фильму была сделана одноименная игра.
     * Для создания первой части «Трансформеров» пришлось задействовать 20 Тб дискового пространства серверов. Для работы над вторым фильмом едва хватило 145 Тб. Для сравнения, 145 Тб – это объем 35000 DVD-дисков.
     * Изначально Майкл Бэй не хотел брать Шайю ЛаБафа на роль Сэма, так как считал, что актер слишком стар для этой роли.
     * Десептикон Брол (Brawl) — модифицированный танк «M1 Abrams», первоначально был назван «Devastator», но позже Бэй признал ошибку и десептикона переименовали в Брола. Несмотря на это, в DVD-версии сохранился неисправленный субтитр «Devastator reporting».

Личная оценка: 10 из 10
Продолжительность:  02:23:27
Качество видео: 720p BDRip
Видео:
Кодек: AVC/х264, High@L4.0
Размер кадра: 1280x536
Битрейт: 8600 кб/с
Аудио
Аудио №1: Русский AC3 5.1, 384 kbps Дублированный(дубляж) | Лицензия
Аудио №2: Украинский AC3 5.1, 384 kbps Дублированный(дубляж) | Лицензия

MediaInfo:
General
      Unique ID : 231795776363004967846742631361492789512 (0xAE623E1F7D73100DBBBDFF0C7BAFA908)
      Format : Matroska
      Format version : Version 4 / Version 2
      File size : 9.39 GiB
      Duration : 2h 23mn
      Overall bit rate : 9 366 Kbps
      Movie name : pslan.com
      Encoded date : UTC 2013-04-11 16:22:01
      Writing application : mkvmerge v6.1.0 ('Old Devil') built on Mar  2 2013 14:32:37
      Writing library : libebml v1.3.0 + libmatroska v1.4.0
   Video #1
      ID : 1
      Format : AVC
      Format/Info : Advanced Video Codec
      Format profile : Main@L4.0
      Format settings, CABAC : Yes
      Format settings, ReFrames : 8 frames
      Codec ID : V_MPEG4/ISO/AVC
      Duration : 2h 23mn
      Bit rate : 8 600 Kbps
      Width : 1 280 pixels
      Height : 536 pixels
      Display aspect ratio : 2.40:1
      Frame rate mode : Constant
      Frame rate : 23.976 fps
      Color space : YUV
      Chroma subsampling : 4:2:0
      Bit depth : 8 bits
      Scan type : Progressive
      Bits/(Pixel*Frame) : 0.523
      Stream size : 8.43 GiB (90%)
      Writing library : x264 core 125 r2200 999b753
      Encoding settings : cabac=1 / ref=8 / deblock=1:0:0 / analyse=0x1:0x111 / me=umh / subme=9 / psy=1 / psy_rd=1.00:0.00 / mixed_ref=1 / me_range=16 / chroma_me=1 / trellis=2 / 8x8dct=0 / cqm=0 / deadzone=21,11 / fast_pskip=1 / chroma_qp_offset=-2 / threads=6 / lookahead_threads=1 / sliced_threads=0 / nr=0 / decimate=1 / interlaced=0 / bluray_compat=0 / constrained_intra=0 / bframes=3 / b_pyramid=2 / b_adapt=2 / b_bias=0 / direct=3 / weightb=1 / open_gop=0 / weightp=2 / keyint=250 / keyint_min=23 / scenecut=40 / intra_refresh=0 / rc_lookahead=60 / rc=2pass / mbtree=1 / bitrate=8600 / ratetol=1.0 / qcomp=0.60 / qpmin=0 / qpmax=69 / qpstep=4 / cplxblur=20.0 / qblur=0.5 / ip_ratio=1.40 / aq=1:1.00
      Default : Yes
      Forced : No
   Audio #2
      ID : 2
      Format : AC-3
      Format/Info : Audio Coding 3
      Mode extension : CM (complete main)
      Format settings, Endianness : Big
      Codec ID : A_AC3
      Duration : 2h 23mn
      Bit rate mode : Constant
      Bit rate : 384 Kbps
      Channel(s) : 6 channels
      Channel positions : Front: L C R, Side: L R, LFE
      Sampling rate : 48.0 KHz
      Bit depth : 16 bits
      Compression mode : Lossy
      Stream size : 394 MiB (4%)
      Title : AC3 5.1 384 Kbps Дубляж
      Language : Russian
      Default : Yes
      Forced : No
   Audio #3
      ID : 3
      Format : AC-3
      Format/Info : Audio Coding 3
      Mode extension : CM (complete main)
      Format settings, Endianness : Big
      Codec ID : A_AC3
      Duration : 2h 23mn
      Bit rate mode : Constant
      Bit rate : 384 Kbps
      Channel(s) : 6 channels
      Channel positions : Front: L C R, Side: L R, LFE
      Sampling rate : 48.0 KHz
      Bit depth : 16 bits
      Compression mode : Lossy
      Stream size : 394 MiB (4%)
      Title : AC3 5.1 384 Kbps [Дубляж, R5]
      Language : Ukrainian
      Default : No
      Forced : No

Скриншоты:
http://img.pslan.com/uploads/b294aff42f144ee7c8f89550d572b5a3.jpg http://img.pslan.com/uploads/dfd851584deb3b335ae90c49bcfa246c.jpg http://img.pslan.com/uploads/f14393792b5bd86d42ff445a0efa7971.jpg

http://img.pslan.com/uploads/39428b0e1efbecc30dda0b15a8acf2db.jpg http://img.pslan.com/uploads/b0a3ea1a9f737c0f817b362ca2ab1455.jpg http://img.pslan.com/uploads/a0d0893b6f10d1e2b514730f5d73be7b.jpg
(нажмите для увеличения)
Трансформеры: Месть падших  / Transformers: Revenge of the Fallen (2009)  720p BDRip | Дубляж | PSLanLaboratory
    
http://img.pslan.com/uploads/92c20086708b188e768955834b69f55f.jpg
Информация о фильме
Название: Трансформеры: Месть падших  
Оригинальное название: Transformers: Revenge of the Fallen
Жанр: фантастика, боевик, триллер, приключения
Страна: США
Год выпуска: 2009
Режиссер: Майкл Бэй
В ролях: Шайа ЛаБаф, Меган Фокс, Джош Дюамель, Тайриз Гибсон, Джон Туртурро, Рамон Родригез, Кевин Данн, Джули Уайт, Изабель Лукас, Джон Бенжамин Хикки

О фильме: Прошло два года с тех пор, как юный Сэм Уитвикки спас Вселенную, предотвратив глобальную битву между враждующими воинственными расами инопланетных роботов. Несмотря на свои героические подвиги, Сэм остается обычным подростком с обычными проблемами - поступлением в колледж и родителями. Разумеется, отъезд будет тяжело воспринят лучшим другом, роботом - телохранителем Бамблби.

Сэм изо всех сил пытается забыть о конфликте в Мишн Сити и вернуться к нормальной жизни. Однако битва между Автоботами и Десептиконами, несмотря на гриф полной секретности, многое изменила...

http://imdb.snick.ru/ratefor/03/tt1055369.png http://rating.kinopoisk.ru/373391.gif http://www.hdclub.ua/button/movie/553.png http://www.hdclub.ua/button/movie-disc/403.png

Знаете ли вы, что...
   • Для создания первой части «Трансформеров» пришлось задействовать 20 Тб дискового пространства. Для работы над вторым фильмом едва хватило 145 Тб. Для сравнения, 145 Тб — это объем 35000 DVD-дисков. Если сложить столько дисков без коробок друг на друга, то их высота составит 44 метра.

• В первой части было 14 роботов, на этот раз — 46.

• Экранное время спецэффектов от студии ILM — 51 минута.

• Рендеринг фильма на среднестатистическом домашнем компьютере образца 2009 года занял бы 16 тысяч лет.

• Съёмки начались на следующий день, после того как «Трансформеры» получили награду MTV в номинации «Лучший фильм».

• Майкл Бэй планировал снять кино с небольшим бюджетом в промежутке между фильмами о трансформерах. Однако, когда график съёмок второй части «Трансформеров» сдвинулся, Бэй отложил свой маленький проект, т. к. не хотел, чтобы сиквел снимал кто-то другой.

• Джоне Хилл предлагали роль в фильме, однако он отказался, прочитав всего лишь первые двадцать страниц сценария.

• Изначально Роберто Орси и Алекс Куртцман, написавшие сценарий первого фильма, отклонили предложение написать сценарий сиквела из-за занятости на других проектах. Однако, после того, как студия признала сценарии других авторов неприемлемыми, продюсерам удалось убедить Роберто и Алекса, поработать над вторым фильмом.

• Автобот Хаунд, трансформирующий в военный джип «Jeep Wrangler», был добавлен в фильм по просьбе Министерства обороны США, после того как они заметили, что в первой картине в основном в военную технику трансформировались десептиконы.

• Сиквел вполне мог пасть жертвой забастовки сценаристов, однако Роберто Орси, Алекс Куртцман и Эрен Крюгер успели закончить тритмент в ночь перед началом забастовки.

• В июле 2008 Шайа ЛаБаф попал в аварию. Сценаристам пришлось обыграть в фильме травму его руки.

• Алекс Куртцман придумал название фильма. Роберто Орси хотел, чтобы фильм назывался «Transformers: More Than Meets the Eye».

• Мэттью Мэрсден был фанатом комиксов о трансформерах в детстве.

• Эрен Крюгер присоединился к сценарной команде во многом благодаря своему энциклопедическому знанию вселенной трансформеров.

• Во время набора актеров и выбора мест съёмок фильм проходил под вымышленным названием «Prime Directive».

• Изначально автобот Арси должен был присутствовать в первом фильме.

• Десептикон Саундвэйв должен был присутствовать в первом фильме, однако работы над его внешним видом не были завершены в срок. В сиквеле он будет трансформироваться в спутник.

• Фильм приурочен к двадцатипятилетию «Трансформеров» (1984).

• Группа «Mute Math» записала рок-версию музыкальной темы «Трансформеров» (1984), которая должна была быть использована в первом фильме. Создатели так и не нашли для неё места, однако композиция будет использована в сиквеле.

• Три экшн-сцены были сняты камерами IMAX.

• По словам Стива Яблонски, в саундтреке сиквела будут присутствовать элементы оригинальной музтемы трансформеров. Стив собирался включить данные элементы в саундтрек первого фильма, однако его идею отклонили.

• В некоторых массовках участвовали настоящие моряки ВМФ США.

• Древний город Петра, где Сэм и автоботы находят тайник Праймов, также послужил для съемок кульминационной сцены фильма Стивена Спилберга «Индиана Джонс и последний крестовый поход».

• В фильме можно заметить постеры двух фильмов — «Монстро» и «Плохие парни 2». Постер первого фильма отсылает к сценаристам Курцману и Орси, которые постоянно сотрудничают с продюсером «Монстро» Дж. Дж Абрамсом. А постер второго фильма отсылает к режиссеру Майклу Бэю, снимавшего «Плохих парней 2».

• Робот Девастатор ростом с 10-ти этажное здание.

• Когда Девастатор наносит удар по пирамиде, его рука развивает скорость 626 км/час. Детали этого робота, поставленные одна на другую, образовали бы башню, высота которой была бы в 58 раз выше знаменитого Empire State Building в Нью-Йорке. Общая длина деталей Девастатора около 22 км.

• Во время пре-продакшна Майкл Бэй заявил, что будет специально инсценировать утечку в сеть различной фальшивой информации, чтобы подстегнуть шумиху вокруг фильма и обсуждение картины на различных киносайтах.

• По данному фильму была сделана одноименная игра.

• В фильме задействованы как последнее из сохранившихся «классических» семи чудес света — Пирамида Хеопса в Гизе, так и одно из «новых» 7-ми чудес света — Петра в Иордании.

• В комнате общежития колледжа висел постер к фильму «Плохие парни 2».

• Время обработки одного кадра IMAX — 72 часа каждый кадр.

Личная оценка: 10 из 10
Продолжительность:  02:30:24
Качество видео: 720p BDRip
Видео:
Кодек: AVC/х264, High@L4.0
Размер кадра: 1280x536
Битрейт: 8700 кб/с
Аудио
Аудио №1: Русский AC3 5.1, 448 kbps Дублированный(дубляж) | Лицензия
Аудио №2: Украинский AC3 5.1, 448 kbps Дублированный(дубляж) | Лицензия

MediaInfo:
General
      Unique ID : 184286733920454478084816091308767824394 (0x8AA4557BD9F65BC4B0D949D3D4F3CA0A)
      Complete name : Transformers Revenge of.the Fallen 2009.720p.BDRip.Rus.Ukr.PSLanLaboratory.mkv
      Format : Matroska
      Format version : Version 4 / Version 2
      File size : 10.1 GiB
      Duration : 2h 30mn
      Overall bit rate : 9 594 Kbps
      Movie name : pslan.com
      Encoded date : UTC 2013-04-13 07:22:13
      Writing application : mkvmerge v6.1.0 ('Old Devil') built on Mar  2 2013 14:32:37
      Writing library : libebml v1.3.0 + libmatroska v1.4.0
   Video #1
      ID : 1
      Format : AVC
      Format/Info : Advanced Video Codec
      Format profile : Main@L4.0
      Format settings, CABAC : Yes
      Format settings, ReFrames : 8 frames
      Codec ID : V_MPEG4/ISO/AVC
      Duration : 2h 30mn
      Bit rate : 8 700 Kbps
      Width : 1 280 pixels
      Height : 536 pixels
      Display aspect ratio : 2.40:1
      Frame rate mode : Constant
      Frame rate : 23.976 fps
      Color space : YUV
      Chroma subsampling : 4:2:0
      Bit depth : 8 bits
      Scan type : Progressive
      Bits/(Pixel*Frame) : 0.529
      Stream size : 8.94 GiB (89%)
      Writing library : x264 core 125 r2200 999b753
      Encoding settings : cabac=1 / ref=8 / deblock=1:0:0 / analyse=0x1:0x111 / me=umh / subme=9 / psy=1 / psy_rd=1.00:0.00 / mixed_ref=1 / me_range=16 / chroma_me=1 / trellis=2 / 8x8dct=0 / cqm=0 / deadzone=21,11 / fast_pskip=1 / chroma_qp_offset=-2 / threads=6 / lookahead_threads=1 / sliced_threads=0 / nr=0 / decimate=1 / interlaced=0 / bluray_compat=0 / constrained_intra=0 / bframes=3 / b_pyramid=2 / b_adapt=2 / b_bias=0 / direct=3 / weightb=1 / open_gop=0 / weightp=2 / keyint=250 / keyint_min=23 / scenecut=40 / intra_refresh=0 / rc_lookahead=60 / rc=2pass / mbtree=1 / bitrate=8700 / ratetol=1.0 / qcomp=0.60 / qpmin=0 / qpmax=69 / qpstep=4 / cplxblur=20.0 / qblur=0.5 / ip_ratio=1.40 / aq=1:1.00
      Default : Yes
      Forced : No
   Audio #2
      ID : 2
      Format : AC-3
      Format/Info : Audio Coding 3
      Mode extension : CM (complete main)
      Format settings, Endianness : Big
      Codec ID : A_AC3
      Duration : 2h 30mn
      Bit rate mode : Constant
      Bit rate : 448 Kbps
      Channel(s) : 6 channels
      Channel positions : Front: L C R, Side: L R, LFE
      Sampling rate : 48.0 KHz
      Bit depth : 16 bits
      Compression mode : Lossy
      Stream size : 482 MiB (5%)
      Title : AC3 5.1 448 Kbps Дубляж
      Language : Russian
      Default : Yes
      Forced : No
   Audio #3
      ID : 3
      Format : AC-3
      Format/Info : Audio Coding 3
      Mode extension : CM (complete main)
      Format settings, Endianness : Big
      Codec ID : A_AC3
      Duration : 2h 30mn
      Bit rate mode : Constant
      Bit rate : 448 Kbps
      Channel(s) : 6 channels
      Channel positions : Front: L C R, Side: L R, LFE
      Sampling rate : 48.0 KHz
      Bit depth : 16 bits
      Compression mode : Lossy
      Stream size : 482 MiB (5%)
      Title : AC3 5.1 448 Kbps Дубляж
      Language : Ukrainian
      Default : No
      Forced : No

Скриншоты:
http://img.pslan.com/uploads/0785df39ae15f16c78871a3ca826bf42.jpg http://img.pslan.com/uploads/b3b79d5983b9588375e085f8f5b4b992.jpg http://img.pslan.com/uploads/360f7c8f0ff2651604f53b5c5315f675.jpg

http://img.pslan.com/uploads/f41b6433b5c55e0a71bca3f29e880756.jpg http://img.pslan.com/uploads/179024833aa59d3402bfcf90c85c4d7d.jpg http://img.pslan.com/uploads/4c8c3c319bf4e1d748ec7547c4a2da51.jpg
(нажмите для увеличения)
Трансформеры 3: Тёмная сторона Луны / Transformers: Dark of the Moon (2011)  720p BDRip | Дубляж | PSLanLaboratory
    
http://img.pslan.com/uploads/f465e89ee00ad1648846cf9cd1d517c9.jpg
Информация о фильме
Название: Трансформеры 3: Тёмная сторона Луны
Оригинальное название: Transformers: Dark of the Moon
Жанр: фантастика, боевик, триллер, приключения
Страна: США
Год выпуска: 2011
Режиссер: Майкл Бэй
В ролях: Шайа ЛаБаф, Джош Дюамель, Джон Туртурро, Тайриз Гибсон, Роузи Хантингтон-Уайтли, Патрик Демпси, Кевин Данн, Джули Уайт, Джон Малкович, Питер Кален

О фильме: Для наших героев наступили печальные будни: Сэм потерял Микаэлу, правительство выпускает законодательный акт о выселении Автоботов с Земли, а пока Мегатрон скрывается после позорного поражения Фоллена, десептикон Шокуэйв, правитель Кибертрона, готовится нанести визит нашей планете с совсем недобрыми намерениями. Действие заключительной части трилогии на этот раз охватит не только Землю, но и Луну, темная сторона которой хранит не менее темные тайны.

http://imdb.snick.ru/ratefor/03/tt1399103.png http://rating.kinopoisk.ru/452899.gif http://www.hdclub.ua/button/movie/1357.png http://www.hdclub.ua/button/movie-disc/1438.png

Знаете ли вы, что...
   • Мировая премьера фильма состоялась в Москве в рамках Московского международного кинофестиваля 23 июня 2011 года.
• Из-за конфликта с режиссером фильма Меган Фокс была вынуждена покинуть проект.
• 1 миллион американских долларов был потрачен в течение двух съемочных дней в Художественном музее Милуоки.
• Майкл Бэй - единственный режиссер, которому было разрешено дважды снять запуск космического шатла («Армагеддон» и «Трансформеры 3»).
• Трансформеры созданы компанией по производству игрушек Hasbro в 1984 году, позже ставших медиаимперией из мультсериалов и комиксов. Сегодня права на комиксы Трансформеров принадлежат издательству IDW и они дополняют как кинофраншизу, так и оригинальную вселенную Трансформеров.
• Сентинел Прайм (озвучивал в оригинале Леонард Нимой) перед финальной битвой с Оптимусом говорит: «Потребности большинства перекрывают потребности меньшинства». Примечательно, что это фраза является фразой Спока («Звёздный путь»), роль которого исполнял Леонард Нимой.
• Главными претендентками на роль Карли были Бруклин Декер и Сара Райт. Также её могли сыграть Джемма Артертон, Эшли Грин, Миранда Керр, Бар Рафаэли, Эмбер Херд, Камилла Белль, Кэти Кэссиди, Хайди Монтаг и Анна Кендрик.
• Майклу Бэю достается 8% от продаж всей мерчандайзинговой продукции - игрушек, сувениров, комиксов - связанной с фильмом. К оригинальным игрушкам Трансформеров, не брендированных в стиле кинофраншизы, это не относится.
• Во время съемок автомобильной сцены в штате Индиана лопнул буксировочный трос. Оторвавшись, он тяжело ранил водительницу. Габриэла Седийо осталась в живых, но лишилась глаза, получила серьезное повреждение головного мозга и оказалась наполовину парализована.

Личная оценка: 10 из 10
Продолжительность:  02:34:23
Качество видео: 720p BDRip
Видео:
Кодек: AVC/х264, High@L4.0
Размер кадра: 1280x536
Битрейт: 8700 кб/с
Аудио
Аудио №1: Русский AC3 5.1, 384 kbps Дублированный(дубляж) | Лицензия
Аудио №2: Украинский AC3 5.1, 384 kbps Дублированный(дубляж) | Лицензия

MediaInfo:
General
      Unique ID : 229962800198196418610409033906406851372 (0xAD01396BB441A0A6A6AB394CC600832C)
      Complete name :Transformers Dark of the Moon 2011.720p.BDRip.Rus.Ukr.PSLanLaboratory.mkv
      Format : Matroska
      Format version : Version 4 / Version 2
      File size : 10.2 GiB
      Duration : 2h 34mn
      Overall bit rate : 9 467 Kbps
      Movie name : pslan.com
      Encoded date : UTC 2013-04-13 09:03:27
      Writing application : mkvmerge v6.1.0 ('Old Devil') built on Mar  2 2013 14:32:37
      Writing library : libebml v1.3.0 + libmatroska v1.4.0
   Video #1
      ID : 1
      Format : AVC
      Format/Info : Advanced Video Codec
      Format profile : Main@L4.0
      Format settings, CABAC : Yes
      Format settings, ReFrames : 8 frames
      Codec ID : V_MPEG4/ISO/AVC
      Duration : 2h 34mn
      Bit rate : 8 700 Kbps
      Width : 1 280 pixels
      Height : 536 pixels
      Display aspect ratio : 2.40:1
      Frame rate mode : Constant
      Frame rate : 23.976 fps
      Color space : YUV
      Chroma subsampling : 4:2:0
      Bit depth : 8 bits
      Scan type : Progressive
      Bits/(Pixel*Frame) : 0.529
      Stream size : 9.18 GiB (90%)
      Writing library : x264 core 125 r2200 999b753
      Encoding settings : cabac=1 / ref=8 / deblock=1:0:0 / analyse=0x1:0x111 / me=umh / subme=9 / psy=1 / psy_rd=1.00:0.00 / mixed_ref=1 / me_range=16 / chroma_me=1 / trellis=2 / 8x8dct=0 / cqm=0 / deadzone=21,11 / fast_pskip=1 / chroma_qp_offset=-2 / threads=6 / lookahead_threads=1 / sliced_threads=0 / nr=0 / decimate=1 / interlaced=0 / bluray_compat=0 / constrained_intra=0 / bframes=3 / b_pyramid=2 / b_adapt=2 / b_bias=0 / direct=3 / weightb=1 / open_gop=0 / weightp=2 / keyint=250 / keyint_min=23 / scenecut=40 / intra_refresh=0 / rc_lookahead=60 / rc=2pass / mbtree=1 / bitrate=8700 / ratetol=1.0 / qcomp=0.60 / qpmin=0 / qpmax=69 / qpstep=4 / cplxblur=20.0 / qblur=0.5 / ip_ratio=1.40 / aq=1:1.00
      Default : Yes
      Forced : No
   Audio #2
      ID : 2
      Format : AC-3
      Format/Info : Audio Coding 3
      Mode extension : CM (complete main)
      Format settings, Endianness : Big
      Codec ID : A_AC3
      Duration : 2h 34mn
      Bit rate mode : Constant
      Bit rate : 384 Kbps
      Channel(s) : 6 channels
      Channel positions : Front: L C R, Side: L R, LFE
      Sampling rate : 48.0 KHz
      Bit depth : 16 bits
      Compression mode : Lossy
      Stream size : 424 MiB (4%)
      Title : дубляж
      Language : Russian
      Default : Yes
      Forced : No
   Audio #3
      ID : 3
      Format : AC-3
      Format/Info : Audio Coding 3
      Mode extension : CM (complete main)
      Format settings, Endianness : Big
      Codec ID : A_AC3
      Duration : 2h 34mn
      Bit rate mode : Constant
      Bit rate : 384 Kbps
      Channel(s) : 6 channels
      Channel positions : Front: L C R, Side: L R, LFE
      Sampling rate : 48.0 KHz
      Bit depth : 16 bits
      Compression mode : Lossy
      Stream size : 424 MiB (4%)
      Title : Дубляж
      Language : Ukrainian
      Default : No
      Forced : No

Скриншоты:
http://img.pslan.com/uploads/30fffc9e866fecf619ab89851911c26d.jpg http://img.pslan.com/uploads/9fb425d2438f167b645f590529ad9ca5.jpg http://img.pslan.com/uploads/036cac2c5aa03fbf5d614f3c9ca2320b.jpg

http://img.pslan.com/uploads/bb25669b7c69a352f600a6f6abfd6fad.jpg http://img.pslan.com/uploads/f8259831d395f56aedb373644b9f2e8d.jpg http://img.pslan.com/uploads/9820c74bfe278d352f73dcf720c089f1.jpg
(нажмите для увеличения)

Релиз группа:
/rgroup/P.S.Lan_Laboratory.gif
Скриншоты    
РаздающийПоследний раз был здесь 5d 23:38:24 назад
Размер29.68 GB (31,865,247,895 байт)
Добавлен2013-04-13 18:19:07
Скачан110 раз
BONUSDownload на 80% не учитывается!

место под вашу рекламу

Комментарии

  1. 1
    Не в сети *XAKER* - Дед мороз P.S.Lan'a (2013-04-13 22:11:49) upload 9.707 TB, download 5.257 TB, 1.85
    дайте скорости)
  2. 2
    Не в сети crazyvovan - Super User (2013-04-14 01:05:10) upload 17.178 TB, download 2.842 TB, 6.04
    Я так понял что никто скорости не даст!!! просто качающих больше чем раздающих, у меня скачано из 29 гиг только 40% ето гдето 11 гиг ЗАТО РАЗДАЛ уже 26гб))))) загрузка 200-300кб а отдача 2мб
  3. 3
    Не в сети S@nyurkaDonor - Super User (2013-04-14 08:15:36) upload 21.946 TB, download 5.65 GB, 3,974.28
    Спокойствие, сейчас все скачаете !!!
  4. 4
    Не в сети crazyvovan - Super User (2013-04-14 10:45:56) upload 17.178 TB, download 2.842 TB, 6.04
    S@nyurka писал
    Спокойствие, сейчас все скачаете !!!

    Благодарствие !!! все прошло успешно, помогаю раздавать (лови респект)

    Последний раз редактировалось crazyvovan в 2013-04-14 10:46:12

  5. 5
    Не в сети EugenG - Super User (2013-05-02 18:20:33) upload 6.892 TB, download 2.060 TB, 3.34
    Дайте скорости пожалуйста!
  6. 6
    Не в сети kurpu4 - Super User (2014-03-13 09:49:03) upload 10.559 TB, download 881.38 GB, 12.27
    Дайте скорости плиз!!!!
  7. 7
    Не в сети guchinni - Опытный пользователь (2016-05-05 00:33:15) upload 787.13 GB, download 433.97 GB, 1.81
    станьте пожалуйста на раздачу!!! Плиз!!!
Всего 7 на 1 страницах по 10 на каждой странице.

vkontakte Last.fm Twitter Одноклассники P.S.Lan
reklama




Загрузка...