Привет, друг!!!

  • Если что-то не получается
  • Алексей (Skype)
  • katafalk555
  • Помощь по форуму
  • 473868046 Женя
  • Общие вопросы
  • Татьяна (QIP)
  • User ID: tarantinka3
загрузка...

Пес Барбос и необычный кросс (1961) 1080p BDRip | Полная реставрация ''Крупный план'' | PSLanLaboratory

Наше кино HD-VIDEOСкачать: Пес Барбос и необычный кросс (1961) 1080p BDRip | Полная реставрация ''Крупный план'' | PSLanLaboratory

Проверен
Рейтинг0
              
Обложка
Пес Барбос и необычный кросс (1961) 1080p BDRip | Полная реставрация ''Крупный план'' | PSLanLaboratory
Описание
Информация о фильме
Название: Пес Барбос и необычный кросс
Жанр: короткометражка, комедия
Страна: СССР
Год выпуска: 1961
Режиссер: Леонид Гайдай
В ролях: Евгений Моргунов, Юрий Никулин, Георгий Вицин

О фильме: Что есть главное средство для поддержания мужской дружбы и просто для увлекательного времяпрепровождения? Правильно, это рыбалка. Трус, Балбес и Бывалый решили испытать эту радость жизни на себе, но на свою беду взяли они с собой пса Барбоса...

http://imdb.snick.ru/ratefor/03/tt1831745.png http://rating.kinopoisk.ru/161339.gif http://www.hdclub.ua/button/movie/2038.png http://www.hdclub.ua/button/movie-disc/2192.png

Знаете ли вы, что...
• В сцене, где впервые Бывалый достает динамитовую шашку, у нее нет огнепроводного шнура, хотя в дальнейшем он чудесным образом появляется.
• В фильме огнепроводный шнур горит красным пламенем. Но на самом деле должен гореть желтым.
• В сцене, где мимо троицы на лодке проплывает рыбнадзор слышен звук низкооборотистого четырехтактного двигателя серии «Л» (действительно широко применявшийся на лодках в те годы), хотя на той лодке стоит подвесной мотор «Москва».

Личная оценка: 10 из 10
Продолжительность:  00:10:27
Качество видео: 1080p BDRip
Видео:
Кодек: AVC/х264, High@L4.2
Размер кадра: 1472x1080
Битрейт: 12000 кб/с
Аудио
Аудио №1: Русский AC3 5.1, 384 kbps Оригинал
Дополнительно: Сохранены оригинальные чаптеры как на Blu-Ray.
MediaInfo:
General
      Unique ID : 184564573052915618708399913368471076695 (0x8AD9D802B95AC43DB6737C2C2E75FF57)
      Complete name : Пес Барбос и необычный кросс.BDRip.1080p.PSLanLaboratory.mkv
      Format : Matroska
      Format version : Version 2
      File size : 927 MiB
      Duration : 10mn 27s
      Overall bit rate : 12.4 Mbps
      Encoded date : UTC 2013-04-22 14:02:59
      Writing application : mkvmerge v5.6.0 ('Kenya Kane') built on Jun 29 2012 15:01:44
      Writing library : libebml v1.2.3 + libmatroska v1.3.0
   Video #1
      ID : 1
      Format : AVC
      Format/Info : Advanced Video Codec
      Format profile : Main@L4.2
      Format settings, CABAC : Yes
      Format settings, ReFrames : 5 frames
      Codec ID : V_MPEG4/ISO/AVC
      Duration : 10mn 27s
      Bit rate : 12.0 Mbps
      Width : 1 472 pixels
      Height : 1 080 pixels
      Display aspect ratio : 4:3
      Frame rate mode : Constant
      Frame rate : 23.976 fps
      Color space : YUV
      Chroma subsampling : 4:2:0
      Bit depth : 8 bits
      Scan type : Progressive
      Bits/(Pixel*Frame) : 0.315
      Stream size : 880 MiB (95%)
      Writing library : x264 core 125 r2200 999b753
      Encoding settings : cabac=1 / ref=5 / deblock=1:0:0 / analyse=0x1:0x111 / me=umh / subme=9 / psy=1 / psy_rd=1.00:0.00 / mixed_ref=1 / me_range=32 / chroma_me=1 / trellis=2 / 8x8dct=0 / cqm=0 / deadzone=21,11 / fast_pskip=1 / chroma_qp_offset=-2 / threads=6 / lookahead_threads=1 / sliced_threads=0 / nr=0 / decimate=1 / interlaced=0 / bluray_compat=0 / constrained_intra=0 / bframes=3 / b_pyramid=2 / b_adapt=2 / b_bias=0 / direct=3 / weightb=1 / open_gop=0 / weightp=2 / keyint=250 / keyint_min=23 / scenecut=40 / intra_refresh=0 / rc_lookahead=60 / rc=2pass / mbtree=1 / bitrate=12000 / ratetol=1.0 / qcomp=0.60 / qpmin=0 / qpmax=69 / qpstep=4 / cplxblur=20.0 / qblur=0.5 / ip_ratio=1.40 / aq=1:1.00
      Default : Yes
      Forced : No
   Audio #2
      ID : 2
      Format : AC-3
      Format/Info : Audio Coding 3
      Mode extension : CM (complete main)
      Format settings, Endianness : Big
      Codec ID : A_AC3
      Duration : 10mn 27s
      Bit rate mode : Constant
      Bit rate : 384 Kbps
      Channel(s) : 6 channels
      Channel positions : Front: L C R, Side: L R, LFE
      Sampling rate : 48.0 KHz
      Bit depth : 16 bits
      Compression mode : Lossy
      Stream size : 28.7 MiB (3%)
      Default : Yes
      Forced : No

Релиз группа:
/rgroup/P.S.Lan_Laboratory.gif

Скриншоты[Скриншот №1] - Пес Барбос и необычный кросс (1961) 1080p BDRip | Полная реставрация ''Крупный план'' | PSLanLaboratory  [Скриншот №2] - Пес Барбос и необычный кросс (1961) 1080p BDRip | Полная реставрация ''Крупный план'' | PSLanLaboratory  [Скриншот №3] - Пес Барбос и необычный кросс (1961) 1080p BDRip | Полная реставрация ''Крупный план'' | PSLanLaboratory
РаздающийПоследний раз был здесь 23d 02:43:35 назад
Размер927.38 MB (972,426,434 байт)
Добавлен2013-04-22 18:57:39
Скачан95 раз

место под вашу рекламу

Комментарии

  1. 1
    Не в сети kaleksandr94 - Пользователь (2013-04-22 20:11:56) upload 1.199 TB, download 2.159 TB, 0.56
    Даешь больше советских комедий!
  2. 2
    Не в сети S@nyurkaDonor - Super User (2013-04-22 20:48:56) upload 21.946 TB, download 5.65 GB, 3,974.28
    kaleksandr94 писал
    Даешь больше советских комедий!

    Самогонщики (1961) 1080p BDRip
Всего 2 на 1 страницах по 10 на каждой странице.

vkontakte Last.fm Twitter Одноклассники P.S.Lan
reklama




Загрузка...