Привет, друг!!!

  • Если что-то не получается
  • Алексей (Skype)
  • katafalk555
  • Помощь по форуму
  • 473868046 Женя
  • Общие вопросы
  • Татьяна (QIP)
  • User ID: tarantinka3
загрузка...

Охотники на гангстеров / Gangster Squad (2012) BDRip-AVC | Лицензия

Иностранное киноСкачать: Охотники на гангстеров / Gangster Squad (2012) BDRip-AVC | Лицензия

Проверен
Рейтинг0
              
Обложка
Описание
Информация о фильме
Название: Охотники на гангстеров
Оригинальное название: Gangster Squad
Жанр: боевик, триллер, драма, криминал
Страна: CША / Langley Park Productions, Lin Pictures, Village Roadshow Pictures
Год выпуска: 2013
Режиссер: Рубен Флейшер
В ролях: Джош Бролин , Райан Гослинг, Ник Нолти, Эмма Стоун, Энтони Маки, Джованни Рибизи, Майкл Пенья, Роберт Патрик, Шон Пенн, Холт МакКэллани

О фильме: Лос-Анджелес, 1949 год. Уроженец Бруклина, жестокий главарь банды Микки Коэн держит город в ежовых рукавицах, собирая «грязные» деньги от торговли наркотиками, оружием и проституции, и — если все пойдет, как надо, — к Западу от Чикаго мышь не пискнет без его ведома.
Доп. описание
Защищают его не только его же головорезы, но и находящиеся у него «на крючке» полиция и политики. Этого хватит, чтобы запугать даже самых смелых, закаленных улицей копов… кроме, пожалуй, небольшой тайной группы сотрудников полицейского департамента Лос-Анджелеса во главе с сержантом Джоном О’Мара и Джерри Вутерсом, которые объединились, чтобы попытаться уничтожить преступный мир Коэна.
MediaInfo
Общее
Уникальный идентификатор : 186501694616368465276724662243153691213 (0x8C4EEB7A3EC15EF092F8FFF389C0424D)
Полное имя : Ohotniki.na.Gangsterov.2013.D.BDRip.x264.potroks.mkv
Формат : Matroska
Версия формата : Version 4 / Version 2
Размер файла : 2,19 Гбайт
Продолжительность : 1 ч. 52 м.
Общий поток : 2774 Кбит/сек
Название фильма : -=POTROKS=-
Дата кодирования : UTC 2013-04-15 15:44:18
Программа кодирования : mkvmerge v5.9.0 ('On The Loose') built on Dec 15 2012 16:39:58
Библиотека кодирования : libebml v1.3.0 + libmatroska v1.4.0

Видео
Идентификатор : 1
Формат : AVC
Формат/Информация : Advanced Video Codec
Профиль формата : High@L4.1
Параметр CABAC формата : Да
Параметр ReFrames формата : 11 кадров
Идентификатор кодека : V_MPEG4/ISO/AVC
Продолжительность : 1 ч. 52 м.
Битрейт : 2004 Кбит/сек
Ширина : 1080 пикселей
Высота : 450 пикселей
Соотношение сторон : 2,40:1
Режим частоты кадров : Постоянный
Частота кадров : 23,976 кадра/сек
Цветовое пространство : YUV
Субдискретизация насыщенности : 4:2:0
Битовая глубина : 8 бит
Тип развёртки : Прогрессивная
Бит/(Пиксели*Кадры) : 0.172
Размер потока : 1,54 Гбайт (70%)
Заголовок : Gangster Squad
Библиотека кодирования : x264 core 125 r2208 d9d2288
Настройки программы : cabac=1 / ref=11 / deblock=1:-2:-1 / analyse=0x3:0x133 / me=umh / subme=11 / psy=1 / psy_rd=1.05:0.02 / mixed_ref=1 / me_range=32 / chroma_me=1 / trellis=2 / 8x8dct=1 / cqm=0 / deadzone=21,11 / fast_pskip=0 / chroma_qp_offset=-3 / threads=6 / lookahead_threads=1 / sliced_threads=0 / nr=0 / decimate=1 / interlaced=0 / bluray_compat=0 / constrained_intra=0 / bframes=12 / b_pyramid=2 / b_adapt=2 / b_bias=0 / direct=3 / weightb=1 / open_gop=0 / weightp=2 / keyint=240 / keyint_min=23 / scenecut=40 / intra_refresh=0 / rc_lookahead=150 / rc=2pass / mbtree=1 / bitrate=2004 / ratetol=1.0 / qcomp=0.70 / qpmin=0 / qpmax=69 / qpstep=4 / cplxblur=20.0 / qblur=0.5 / vbv_maxrate=20000 / vbv_bufsize=22500 / nal_hrd=none / ip_ratio=1.35 / aq=1:0.70
Язык : English
Default : Да
Forced : Нет

Аудио #1
Идентификатор : 2
Формат : AC-3
Формат/Информация : Audio Coding 3
Расширение режима : CM (complete main)
Параметр Endianness формата : Big
Идентификатор кодека : A_AC3
Продолжительность : 1 ч. 52 м.
Вид битрейта : Постоянный
Битрейт : 384 Кбит/сек
Каналы : 6 каналов
Расположение каналов : Front: L C R, Side: L R, LFE
Частота : 48,0 КГц
Битовая глубина : 16 бит
Метод сжатия : С потерями
Размер потока : 310 Мбайт (14%)
Заголовок : Dub | DD 5.1 @ 384 kbps
Язык : Russian
Default : Да
Forced : Да

Аудио #2
Идентификатор : 3
Формат : AC-3
Формат/Информация : Audio Coding 3
Расширение режима : CM (complete main)
Параметр Endianness формата : Big
Идентификатор кодека : A_AC3
Продолжительность : 1 ч. 52 м.
Вид битрейта : Постоянный
Битрейт : 384 Кбит/сек
Каналы : 6 каналов
Расположение каналов : Front: L C R, Side: L R, LFE
Частота : 48,0 КГц
Битовая глубина : 16 бит
Метод сжатия : С потерями
Размер потока : 310 Мбайт (14%)
Заголовок : Original | DD 5.1 @ 384 kbps
Язык : English
Default : Нет
Forced : Нет

Текст #1
Идентификатор : 4
Формат : UTF-8
Идентификатор кодека : S_TEXT/UTF8
Идентификатор кодека/Информация : UTF-8 Plain Text
Заголовок : English SDH
Язык : English
Default : Нет
Forced : Нет

Текст #2
Идентификатор : 5
Формат : UTF-8
Идентификатор кодека : S_TEXT/UTF8
Идентификатор кодека/Информация : UTF-8 Plain Text
Заголовок : Forced
Язык : Russian
Default : Да
Forced : Да

Текст #3
Идентификатор : 6
Формат : UTF-8
Идентификатор кодека : S_TEXT/UTF8
Идентификатор кодека/Информация : UTF-8 Plain Text
Заголовок : Full
Язык : Russian
Default : Нет
Forced : Нет

Меню
00:00:00.000 : en:1
00:09:52.000 : en:2
00:20:50.000 : en:3
00:28:35.000 : en:4
00:39:21.000 : en:5
00:49:24.000 : en:6
00:59:58.000 : en:7
01:09:22.000 : en:8
01:20:04.000 : en:9
01:31:00.000 : en:10
01:38:49.000 : en:11
01:44:09.000 : en:12

Сэмпл
Личная оценка: 10 из 10
Продолжительность: 01:52:54
Качество видео: BDRip-AVC
Видео
Кодек: H.264x
Размер кадра: 1080x450
Битрейт:  2004 кб/с
Аудио #1: русский, дублированный (дубляж), АС3 5.1, 384 кб/с
Аудио #2: анлийский, оригинал, АС3 5.1, 384 кб/с

Субтитры: Русские (полные + форс.), английские, английские (SDH) |отключаемые|
Навигация по главам: Есть

Автор рипа:
http://img.pslan.com/uploads/5ea174610487c84788ba86c20a42ae46.png
Скриншоты[Скриншот №1] - Охотники на гангстеров / Gangster Squad (2012) BDRip-AVC | Лицензия  [Скриншот №2] - Охотники на гангстеров / Gangster Squad (2012) BDRip-AVC | Лицензия  [Скриншот №3] - Охотники на гангстеров / Gangster Squad (2012) BDRip-AVC | Лицензия
РаздающийПоследний раз был здесь 405d 13:12:55 назад
Размер2.19 GB (2,349,288,269 байт)
Добавлен2013-04-26 23:00:08
Скачан178 раз
BONUSDownload на 10% не учитывается!

место под вашу рекламу

Комментарии

Комментариев нет.

vkontakte Last.fm Twitter Одноклассники P.S.Lan
reklama




Загрузка...