Привет, друг!!!

  • Если что-то не получается
  • Алексей (Skype)
  • katafalk555
  • Помощь по форуму
  • 473868046 Женя
  • Общие вопросы
  • Татьяна (QIP)
  • User ID: tarantinka3
загрузка...

[60FPS] Джек Ричер / Jack Reacher (2012) 1080p BDRip | Дубляж| PSLanLaboratory

Иностранное кино HD-VIDEOСкачать: [60FPS] Джек Ричер / Jack Reacher (2012) 1080p BDRip | Дубляж| PSLanLaboratory

Проверен
Рейтинг0
              
Обложка
[60FPS] Джек Ричер / Jack Reacher (2012) 1080p BDRip | Дубляж| PSLanLaboratory
Описание
Информация о фильме
Название: Джек Ричер
Оригинальное название: Jack Reacher
Жанр: боевик, триллер, криминал, детектив
Страна: США / Mutual Film Company, Paramount Pictures, Skydance Productions
Год выпуска: 2012
Режиссер: Кристофер МакКуорри
В ролях: Том Круз, Розамунд Пайк, Ричард Дженкинс, Вернер Херцог, Дэвид Ойелоуо, Роберт Дюваль, Джей Кортни, Владимир Сизов, Джозеф Сикора, Майкл Рэймонд-Джеймс

О фильме: Снайпер убивает пять случайных прохожих, но все улики указывают на человека, заключенного под стражу. На допросе подозреваемый умоляет об одном — найти Джека Ричера.

http://imdb.snick.ru/ratefor/03/tt0790724.png http://rating.kinopoisk.ru/417583.gif http://www.hdclub.ua/button/movie/1838.png

Знаете ли вы, что...
Фильм снят по роману Ли Чайлда «Выстрел».
    Хейли Этвелл, Брит Марлинг и Алекса Давалос рассматривались на роль Хелен Родин.
    Первоначально название фильма звучало как One Shot («Выстрел») по одноименному роману Ли Чайлда.
    Дебютный показ тизера фильма совпал с пятидесятым днем рождения Тома Круза.
    Персонаж Джека Ричера в книжной серии Ли Чайлда ростом 1,95 метра и весом около 100 килограммов. Рост Тома Круза — 1,7 метра.
    Брэд Питт, Хью Джекман, Винс Вон, Джейми Фокс и Уилл Смит рассматривались на роль Джека Ричера, прежде чем ее получил Том Круз.
    Том Круз сам исполнил все трюки своего персонажа, связанные с вождением.
    Выход фильма был запланирован на 21 декабря 2012 года, а американская гала-премьера — на 15 декабря. Но премьера была перенесена после массового убийства в начальной школе Сэнди Хук, которое произошло 14 декабря.
    В фильме Кэш дает Ричеру нож, на который тот смотрит с презрением. Это намек на роман Ли Чайлда «Нечего терять» (Nothing to Lose). В этом романе говорится о том, что Ричер ненавидит сталкиваться с противником, вооруженным ножом, считая, что у него нет «никакого особого таланта в этом».
    В сцене, где машина Ричера врезается в бочки, автомобиль случайно заглох после столкновения, но Тому Крузу удалось быстро завести машину, чтобы продолжить движение. В итоге вместо того, чтобы переснять сцену, Кристофер МакКуорри решил оставить ее такой, как есть, потому как ему казалось, что это добавляет в ленту напряжения.
    Ли Чайлд, автор книги, по которой снят фильм, сыграл эпизодическую роль полицейского, отдающего личные вещи Ричеру, когда тот выходит из тюрьмы.
    Во время сцены автомобильной погони с полицией можно заметить наклейку техосмотра на машине Ричера. В начале на ней отмечен июль 2012 года, а после дата меняется на сентябрь 2012-го.
    В баре, когда Джек звонит Хелен и Чарли, таймер вызова на Blackberry резко меняется с 25 до 27, а затем до 15 секунд.

Личная оценка: 10 из 10
Продолжительность:  02:10:24
Качество видео: 1080p BDRip
Видео:
Кодек: AVC/х264, High@L5.1
Размер кадра: 1920x816
Битрейт: 19300 кб/с, 60fps
Аудио
Аудио №1: Русский DTS 5.1, 1536 kbps Дублированный(дубляж) | Лицензия
Субтитры: Русские, Украинские
MediaInfo:
General
      Unique ID : 192880312707797831823283407719683431825 (0x911B65A14FCFBD129A8DAA8F8B319D91)
      Complete name : Jack Reacher. 2012.BDRip.1080p.60fps.Rus.PSLanLaboratory.mkv
      Format : Matroska
      Format version : Version 4 / Version 2
      File size : 19.4 GiB
      Duration : 2h 10mn
      Overall bit rate : 21.3 Mbps
      Movie name : pslan.com
      Encoded date : UTC 2013-04-28 17:50:31
      Writing application : mkvmerge v6.1.0 ('Old Devil') built on Mar  2 2013 14:32:37
      Writing library : libebml v1.3.0 + libmatroska v1.4.0
   Video #1
      ID : 1
      Format : AVC
      Format/Info : Advanced Video Codec
      Format profile : High 10@L5.1
      Format settings, CABAC : Yes
      Format settings, ReFrames : 5 frames
      Codec ID : V_MPEG4/ISO/AVC
      Duration : 2h 10mn
      Bit rate : 19.3 Mbps
      Width : 1 920 pixels
      Height : 816 pixels
      Display aspect ratio : 2.35:1
      Frame rate mode : Constant
      Frame rate : 60.000 fps
      Color space : YUV
      Chroma subsampling : 4:2:0
      Bit depth : 10 bits
      Scan type : Progressive
      Bits/(Pixel*Frame) : 0.206
      Stream size : 17.6 GiB (91%)
      Title : HomeTheater
      Writing library : x264 core 129 r2245 bc13772
      Encoding settings : cabac=1 / ref=5 / deblock=1:-3:-3 / analyse=0x3:0x133 / me=tesa / subme=10 / psy=1 / psy_rd=1.00:0.05 / mixed_ref=1 / me_range=32 / chroma_me=1 / trellis=2 / 8x8dct=1 / cqm=0 / deadzone=21,11 / fast_pskip=0 / chroma_qp_offset=-3 / threads=6 / lookahead_threads=1 / sliced_threads=0 / nr=0 / decimate=0 / interlaced=0 / bluray_compat=0 / constrained_intra=0 / bframes=8 / b_pyramid=2 / b_adapt=2 / b_bias=0 / direct=2 / weightb=1 / open_gop=0 / weightp=2 / keyint=600 / keyint_min=60 / scenecut=40 / intra_refresh=0 / rc_lookahead=125 / rc=crf / mbtree=1 / crf=15.0 / qcomp=0.75 / qpmin=0 / qpmax=81 / qpstep=4 / vbv_maxrate=300000 / vbv_bufsize=300000 / crf_max=0.0 / nal_hrd=none / ip_ratio=1.40 / aq=1:0.65
      Default : Yes
      Forced : No
   Audio #2
      ID : 2
      Format : DTS
      Format/Info : Digital Theater Systems
      Mode : 16
      Format settings, Endianness : Big
      Codec ID : A_DTS
      Duration : 2h 10mn
      Bit rate mode : Constant
      Bit rate : 1 509 Kbps
      Channel(s) : 6 channels
      Channel positions : Front: L C R, Side: L R, LFE
      Sampling rate : 48.0 KHz
      Bit depth : 24 bits
      Compression mode : Lossy
      Stream size : 1.37 GiB (7%)
      Title : DTS 5.1 @ 1536 kbps - DUB, Paramount Pictures
      Language : Russian
      Default : Yes
      Forced : No
   Text #3
      ID : 3
      Format : VobSub
      Muxing mode : zlib
      Codec ID : S_VOBSUB
      Codec ID/Info : The same subtitle format used on DVDs
      Language : Russian
      Default : No
      Forced : No
   Text #4
      ID : 4
      Format : VobSub
      Muxing mode : zlib
      Codec ID : S_VOBSUB
      Codec ID/Info : The same subtitle format used on DVDs
      Language : Ukrainian
      Default : No
      Forced : No

Релиз группа:
/rgroup/P.S.Lan_Laboratory.gif

Скриншоты[Скриншот №1] - [60FPS] Джек Ричер / Jack Reacher (2012) 1080p BDRip | Дубляж| PSLanLaboratory  [Скриншот №2] - [60FPS] Джек Ричер / Jack Reacher (2012) 1080p BDRip | Дубляж| PSLanLaboratory  [Скриншот №3] - [60FPS] Джек Ричер / Jack Reacher (2012) 1080p BDRip | Дубляж| PSLanLaboratory
РаздающийПоследний раз был здесь 132d 02:19:20 назад
Размер19.37 GB (20,799,011,057 байт)
Добавлен2013-04-28 21:36:13
Скачан40 раз
BONUSDownload на 80% не учитывается!

Комментарии

Комментариев нет.

vkontakte Last.fm Twitter Одноклассники P.S.Lan
reklama




Загрузка...