Привет, друг!!!

  • Если что-то не получается
  • Алексей (Skype)
  • katafalk555
  • Помощь по форуму
  • 473868046 Женя
  • Общие вопросы
  • Татьяна (QIP)
  • User ID: tarantinka3
загрузка...

[60FPS] Начало / Inception (2010) 1080р BDRip | Дубляж | PSLanLaboratory

Иностранное кино HD-VIDEOСкачать: [60FPS] Начало / Inception (2010) 1080р BDRip | Дубляж | PSLanLaboratory

Проверен
Рейтинг6895
              
Обложка
[60FPS] Начало / Inception (2010) 1080р BDRip | Дубляж | PSLanLaboratory
Описание
Информация о фильме
Название: Начало
Оригинальное название: Inception
Жанр: фантастика, боевик, триллер, драма, детектив
Страна: США, Великобритания / Warner Bros. Pictures
Год выпуска: 2010
Режиссер: Кристофер Нолан
В ролях: Леонардо ДиКаприо, Джозеф Гордон-Левитт, Эллен Пейдж, Том Харди, Кен Ватанабе, Дилип Рао, Киллиан Мёрфи, Том Беренджер, Марион Котийяр, Пит Постлетуэйт

О фильме:   Кобб — талантливый вор, лучший из лучших в опасном искусстве извлечения: он крадет ценные секреты из глубин подсознания во время сна, когда человеческий разум наиболее уязвим. Редкие способности Кобба сделали его ценным игроком в привычном к предательству мире промышленного шпионажа, но они же превратили его в извечного беглеца и лишили всего, что он когда-либо любил. Но никакое планирование или мастерство не могут подготовить команду к встрече с опасным противником, который, кажется, предугадывает каждый их ход...
«Твой разум - место преступления»


http://imdb.snick.ru/ratefor/03/tt1375666.png http://rating.kinopoisk.ru/447301.gif
Знаете ли вы, что...
• Джеймс Франко начал вести переговоры с Кристофером Ноланом по поводу роли в фильме. Однако, из-за разногласий в расписании актера, он не смог присоединиться к актерской команде. Джозеф Гордон-Левитт в конечном счете получил роль, предназначенную Франко.
• Съемки фильма начались 13 июля 2009 года.
• Леонардо ДиКаприо был первым актером, который дал согласие на участие в проекте.
• Персонажа Леонардо Ди Каприо зовут Дом Кобб. Коббом представился профессиональный вор в дебютном фильме Нолана — «Преследование».
• Первоначальное название сценария — «Стрела Оливера».
• Герои фильма выходят из состояния сна под песню Эдит Пиаф «Non, Je Ne Regrette Rien» (Нет, я ни о чём не жалею). Марион Котийяр в 2007 году исполняла роль Эдит Пиаф.
• На роль Ариадны Нолан хотел пригласить звезду авторского кино Эван Рэйчел Вуд, но актриса заявила, что не заинтересована в сотрудничестве.
• «Начало» стало первым фильмом Тома Беренджера со времен «Тренировочного дня», добравшимся до киноэкранов США.
• В процессе переделки сценария, помимо прочего, изменились и имена главных героев. Так, персонаж Ди Каприо звался Джейкобом Хэстли, а героиню Эллен Пейдж звали Изабеллой.
• Съемки фильма велись в 6 различных странах: США, Великобритания, Франция, Канада, Кения, Япония.
• На роль Ариадны рассматривались Кира Найтли, Эмили Блант и Эмма Робертс.
• Фонетически, «Кобб» означает «мечта» (khwab) на санскрите, хинди, урду и пенджаби. В фильме Кобб мечтал попасть обратно домой.

Личная оценка: 10 из 10
Продолжительность:  02:28:07
Качество видео: 1080p BDRip
Видео:
Кодек: AVC/х264, High@L5.1
Размер кадра: 1920x800
Битрейт: 11300 кб/с, 60fps
Аудио
Аудио №1: Русский АС-3 5.1, 640 kbps Дублированный(дубляж) | Лицензия
Аудио №2: Украинский АС-3 5.1, 640 kbps Дублированный(дубляж) | Лицензия
Субтитры: Русские
MediaInfo:
General
      Unique ID : 172252051791155602704250933725113685560 (0x819689D808CBF077AB96C292A5D11638)
      Complete name : Inception.2010.BDRip.1080p.60fps..Rus.Ukr.PSLanLaboratory.mkv
      Format : Matroska
      Format version : Version 4 / Version 2
      File size : 13.3 GiB
      Duration : 2h 28mn
      Overall bit rate : 12.9 Mbps
      Movie name : pslan.com
      Encoded date : UTC 2013-05-02 15:19:03
      Writing application : mkvmerge v6.1.0 ('Old Devil') built on Mar  2 2013 14:32:37
      Writing library : libebml v1.3.0 + libmatroska v1.4.0
   Video #1
      ID : 1
      Format : AVC
      Format/Info : Advanced Video Codec
      Format profile : High 10@L5.1
      Format settings, CABAC : Yes
      Format settings, ReFrames : 5 frames
      Codec ID : V_MPEG4/ISO/AVC
      Duration : 2h 28mn
      Bit rate : 11.3 Mbps
      Width : 1 920 pixels
      Height : 800 pixels
      Display aspect ratio : 2.40:1
      Frame rate mode : Constant
      Frame rate : 60.000 fps
      Color space : YUV
      Chroma subsampling : 4:2:0
      Bit depth : 10 bits
      Scan type : Progressive
      Bits/(Pixel*Frame) : 0.123
      Stream size : 11.7 GiB (88%)
      Title : HomeTheater
      Writing library : x264 core 129 r2245 bc13772
      Encoding settings : cabac=1 / ref=5 / deblock=1:-3:-3 / analyse=0x3:0x133 / me=tesa / subme=10 / psy=1 / psy_rd=1.00:0.10 / mixed_ref=1 / me_range=64 / chroma_me=1 / trellis=2 / 8x8dct=1 / cqm=0 / deadzone=21,11 / fast_pskip=0 / chroma_qp_offset=-3 / threads=6 / lookahead_threads=1 / sliced_threads=0 / nr=0 / decimate=0 / interlaced=0 / bluray_compat=0 / constrained_intra=0 / bframes=6 / b_pyramid=2 / b_adapt=2 / b_bias=0 / direct=2 / weightb=1 / open_gop=0 / weightp=2 / keyint=600 / keyint_min=60 / scenecut=40 / intra_refresh=0 / rc_lookahead=120 / rc=crf / mbtree=1 / crf=16.0 / qcomp=0.80 / qpmin=0 / qpmax=81 / qpstep=4 / ip_ratio=1.40 / aq=2:0.80
      Default : Yes
      Forced : No
   Audio #2
      ID : 2
      Format : AC-3
      Format/Info : Audio Coding 3
      Mode extension : CM (complete main)
      Format settings, Endianness : Big
      Codec ID : A_AC3
      Duration : 2h 28mn
      Bit rate mode : Constant
      Bit rate : 640 Kbps
      Channel(s) : 6 channels
      Channel positions : Front: L C R, Side: L R, LFE
      Sampling rate : 48.0 KHz
      Bit depth : 16 bits
      Compression mode : Lossy
      Stream size : 678 MiB (5%)
      Language : Russian
      Default : Yes
      Forced : No
   Audio #3
      ID : 3
      Format : AC-3
      Format/Info : Audio Coding 3
      Mode extension : CM (complete main)
      Format settings, Endianness : Big
      Codec ID : A_AC3
      Duration : 2h 28mn
      Bit rate mode : Constant
      Bit rate : 640 Kbps
      Channel(s) : 6 channels
      Channel positions : Front: L C R, Side: L R, LFE
      Sampling rate : 48.0 KHz
      Bit depth : 16 bits
      Compression mode : Lossy
      Stream size : 678 MiB (5%)
      Language : Ukrainian
      Default : No
      Forced : No
   Text #4
      ID : 4
      Format : VobSub
      Muxing mode : zlib
      Codec ID : S_VOBSUB
      Codec ID/Info : The same subtitle format used on DVDs
      Language : Russian
      Default : Yes
      Forced : No
   Text #5
      ID : 5
      Format : VobSub
      Muxing mode : zlib
      Codec ID : S_VOBSUB
      Codec ID/Info : The same subtitle format used on DVDs
      Language : Russian
      Default : No
      Forced : No

Релиз группа:
/rgroup/P.S.Lan_Laboratory.gif

Скриншоты[Скриншот №1] - [60FPS] Начало / Inception (2010) 1080р BDRip | Дубляж | PSLanLaboratory  [Скриншот №2] - [60FPS] Начало / Inception (2010) 1080р BDRip | Дубляж | PSLanLaboratory  [Скриншот №3] - [60FPS] Начало / Inception (2010) 1080р BDRip | Дубляж | PSLanLaboratory
РаздающийПоследний раз был здесь 15:37:10 назад
Размер13.31 GB (14,289,259,752 байт)
Добавлен2013-05-02 20:03:02
Скачан517 раз
BONUSDownload на 80% не учитывается!

место под вашу рекламу

Комментарии

  1. 1
    Не в сети Acid78 - Super User (2013-05-15 15:56:04) upload 6.562 TB, download 1.383 TB, 4.75
    У меня MPCHC хавает все. Компу 6 лет.
    Если не хавает, еще есть для разнообразия GOM и VLC.
    Если тормозит - надо найти в настройках пропуск кадров - тогда изображение выравнивается.
    Сталкивался с таким на слабых компах

    Последний раз редактировалось Acid78 в 2013-05-15 15:58:49

  2. 2
    Не в сети ForWARd - Super User (2013-05-19 02:10:44) upload 21.727 TB, download 1.783 TB, 12.19
    Acid78 писал
    Учите английский.
    "Начало" - англ. Beginning
    В данном случае название фильма не имеет смысла.
    По сюжету о никаком начале не идет речи, там есть история и ее конец.

    Правильный же перевод названия фильма - "Внедрение", вернее даже дословный.
    Герои фильма какраз этим и занимались, и это название имело бы больше смысла.

    У наших "умников" есть привычка коверкать названия фильмов при переводе оных и появлении в прокате, типа, так круче . Уже давно такое наблюдаю.


    Это называется адаптация при переводе.
  3. 3
    Не в сети and_08 - Опытный пользователь (2013-05-19 20:21:34) upload 4.116 TB, download 1.026 TB, 4.01
    Acid78 писал
    Учите английский.
    "Начало" - англ. Beginning
    В данном случае название фильма не имеет смысла.
    По сюжету о никаком начале не идет речи, там есть история и ее конец.

    Правильный же перевод названия фильма - "Внедрение", вернее даже дословный.
    Герои фильма какраз этим и занимались, и это название имело бы больше смысла.

    У наших "умников" есть привычка коверкать названия фильмов при переводе оных и появлении в прокате, типа, так круче . Уже давно такое наблюдаю.




    Я бы согласился. если бы название не переводилось дословно как начало или-же поглощение. Бигининг ну да - начало, а про многозначные слова не не слышал?
  4. 4
    Не в сети ansi - Super User (2013-05-25 10:24:31) upload 10.255 TB, download 1.559 TB, 6.58
    ForWARd писал



    Это называется адаптация при переводе.


    "Public Enemies" перевели как "Джонни Д." это тоже адаптация?
  5. 5
    Не в сети volkdaemon - Опытный пользователь (2013-12-01 17:50:20) upload 4.924 TB, download 2.937 TB, 1.68
    можно скокрости больше?
  6. 6
    Не в сети SanyOk - Опытный пользователь (2015-02-14 19:56:24) upload 74.04 GB, download 12.95 GB, 5.72
    ану-ка качайте, а то зря на раздаче что ли сижу?)

    Последний раз редактировалось SanyOk в 2015-02-14 20:00:55

Всего 16 на 2 страницах по 10 на каждой странице.

vkontakte Last.fm Twitter Одноклассники P.S.Lan
reklama




Загрузка...