Привет, друг!!!

  • Если что-то не получается
  • Алексей (Skype)
  • katafalk555
  • Помощь по форуму
  • 473868046 Женя
  • Общие вопросы
  • Татьяна (QIP)
  • User ID: tarantinka3
загрузка...

Истребители (2013) 720p HDTVRip | Серии 1-12 из 12 | PSLanLaboratory

Русский сериалСкачать: Истребители (2013) 720p HDTVRip | Серии 1-12 из 12 | PSLanLaboratory

Проверен
Рейтинг999
              
Обложка
Описание
Информация о фильме
Название: Истребители
Серий 1-12 из 12
Жанр: военный, драма
Страна: Россия
Год выпуска: 2013
Режиссер: Алексей Мурадов
В ролях: Екатерина Вилкова, Дмитрий Дюжев, Николай Козак, Любовь Руденко, Олег Фомин, Юрий Яковлев-Суханов, Мария Андреева, Виталий Махов, Денис Варенов, Антон Соколов, Дмитрий Арбенин, Александр Корчагин, Екатерина Рябова, Владимир Большов, Иван Гар, Игорь Арташонов, Дарья Кривцова, Андрей Мясников, Азамат Нигманов

О фильме: В разгаре Великая Отечественная Война. Молодые летчики Леонид и Борис по прибытии в летную школу узнают, что они зачислены в авиационный полк и в ближайшее время их отправят на фронт. В полку они знакомятся со своими старшими товарищами и будущими наставниками: боевым летчиком-асом Лидией Литовченко, опытным летчиком Ильей Бестужевым, командиром полка Канищевым) и красавицей-летчицей Евгенией. Молодые люди пока не подозревают, какую роль в их судьбе суждено сыграть новым знакомым...

http://rating.kinopoisk.ru/693415.gif

Продолжительность: ~00:43:00
Качество видео: 720p HDTVRip
Видео
Кодек: AVC/х264, High@L4.1
Размер кадра:  1280х720
Битрейт: 3000 кб/с
Аудио
Язык: русский
Перевод: оригинал
Кодек: AC-3 2.0
Битрейт: 192 кб/с
MediaInfo:
General
      Unique ID : 250131437501596945259735772722262140729 (0xBC2D9003634C51C78AEE699BC4A76739)
      Format : Matroska
      Format version : Version 2
      File size : 982 MiB
      Duration : 42mn 59s
      Overall bit rate : 3 194 Kbps
      Encoded date : UTC 2013-05-03 06:41:12
      Writing application : mkvmerge v5.6.0 ('Kenya Kane') built on Jun 29 2012 15:01:44
      Writing library : libebml v1.2.3 + libmatroska v1.3.0
   Video #1
      ID : 1
      Format : AVC
      Format/Info : Advanced Video Codec
      Format profile : High@L4.1
      Format settings, CABAC : Yes
      Format settings, ReFrames : 8 frames
      Codec ID : V_MPEG4/ISO/AVC
      Duration : 42mn 59s
      Bit rate : 3 000 Kbps
      Width : 1 280 pixels
      Height : 720 pixels
      Display aspect ratio : 16:9
      Frame rate mode : Constant
      Frame rate : 25.000 fps
      Color space : YUV
      Chroma subsampling : 4:2:0
      Bit depth : 8 bits
      Scan type : Progressive
      Bits/(Pixel*Frame) : 0.130
      Stream size : 904 MiB (92%)
      Writing library : x264 core 125 r2200 999b753
      Encoding settings : cabac=1 / ref=8 / deblock=1:0:0 / analyse=0x3:0x111 / me=umh / subme=9 / psy=1 / psy_rd=1.00:0.00 / mixed_ref=1 / me_range=16 / chroma_me=1 / trellis=2 / 8x8dct=1 / cqm=0 / deadzone=21,11 / fast_pskip=1 / chroma_qp_offset=-2 / threads=6 / lookahead_threads=1 / sliced_threads=0 / nr=0 / decimate=1 / interlaced=0 / bluray_compat=0 / constrained_intra=0 / bframes=3 / b_pyramid=2 / b_adapt=2 / b_bias=0 / direct=3 / weightb=1 / open_gop=0 / weightp=2 / keyint=250 / keyint_min=25 / scenecut=40 / intra_refresh=0 / rc_lookahead=60 / rc=2pass / mbtree=1 / bitrate=3000 / ratetol=1.0 / qcomp=0.60 / qpmin=0 / qpmax=69 / qpstep=4 / cplxblur=20.0 / qblur=0.5 / ip_ratio=1.40 / aq=1:1.00
      Default : Yes
      Forced : No
   Audio #2
      ID : 2
      Format : AC-3
      Format/Info : Audio Coding 3
      Mode extension : CM (complete main)
      Format settings, Endianness : Big
      Codec ID : A_AC3
      Duration : 42mn 59s
      Bit rate mode : Constant
      Bit rate : 192 Kbps
      Channel(s) : 2 channels
      Channel positions : Front: L R
      Sampling rate : 44.1 KHz
      Bit depth : 16 bits
      Compression mode : Lossy
      Stream size : 59.0 MiB (6%)
      Default : Yes
      Forced : No

Релиз группа:
/rgroup/P.S.Lan_Laboratory.gif
Скриншоты[Скриншот №1] - Истребители (2013) 720p HDTVRip | Серии 1-12 из 12 | PSLanLaboratory  [Скриншот №2] - Истребители (2013) 720p HDTVRip | Серии 1-12 из 12 | PSLanLaboratory  [Скриншот №3] - Истребители (2013) 720p HDTVRip | Серии 1-12 из 12 | PSLanLaboratory
РаздающийПоследний раз был здесь 1d 13:18:09 назад
Размер11.59 GB (12,449,710,620 байт)
Добавлен2013-05-04 12:51:47
Скачан175 раз
BONUSDownload на 80% не учитывается!

место под вашу рекламу

Комментарии

  1. 1
    Не в сети Fliper - Super User (2015-05-15 14:49:49) upload 6.013 TB, download 1.587 TB, 3.79
    Раздайте кто нить!!!
  2. 2
    Не в сети onyxn70 - Super User (2016-03-25 19:34:29) upload 733.53 GB, download 10.30 GB, 71.21
    Поддерживаю !!!!!!!!!!!!!!!!!
Всего 2 на 1 страницах по 10 на каждой странице.

vkontakte Last.fm Twitter Одноклассники P.S.Lan
reklama




Загрузка...