Привет, друг!!!

  • Если что-то не получается
  • Алексей (Skype)
  • katafalk555
  • Помощь по форуму
  • 473868046 Женя
  • Общие вопросы
  • Татьяна (QIP)
  • User ID: tarantinka3
загрузка...

Такси: Квадрология / Taxi : Quadrology (1998/2000/2003/2007) 720p BDRip | Дубляж | PSLanLaboratory

Иностранное кино HD-VIDEOСкачать: Такси: Квадрология / Taxi : Quadrology (1998/2000/2003/2007) 720p BDRip | Дубляж | PSLanLaboratory

Проверен
Рейтинг7043
              
Обложка
Такси: Квадрология / Taxi : Quadrology (1998/2000/2003/2007) 720p BDRip | Дубляж | PSLanLaboratory
Описание
Информация о фильме
Название: Такси: Квадрология
Оригинальное название: Taxi : Quadrology
Жанр: боевик, комедия, криминал
Страна: Франция
Год выпуска: 1998/2000/2003/2007

Такси / Taxi (1998) 720p BDRip | Дубляж | PSLanLaboratory

http://img.pslan.com/uploads/8222e08131ec592715473c5e94c8c75f.jpg  
Информация о фильме
Название: Такси
Оригинальное название: Taxi
Жанр: боевик, комедия, криминал
Страна: Франция
Год выпуска: 1998
Режиссер: Жерар Пирес
В ролях: Сами Насери, Фредерик Дифенталь, Марион Котийяр, Мануэла Гурари, Эмма Сьоберг, Бернар Фарси, Жорж Нери, Эдуард Монтут, Гай Нгуен, Морис Мурсия

О фильме: Молодой таксист Даниэль помешан на быстрой езде. Как ураган проносится он по извилистым улицам Марселя на своем мощном ревущем звере «Пежо», пугая пассажиров и прохожих. Неподкупный полицейский Эмильен вынуждает его помочь в поимке банды грабителей, ускользающих от полиции на своих неуловимых «Мерседесах». И до самого конца не ясно, кто же сможет удержаться на крутом вираже…

http://imdb.snick.ru/ratefor/03/tt0152930.png http://rating.kinopoisk.ru/14349.gif

Личная оценка: 10 из 10
Продолжительность:  01:29:50
Качество видео: 720p BDRip
Видео:
Кодек: AVC/х264, High@L4.2
Размер кадра: 1280x544
Битрейт: 5000 кб/с
Аудио
Аудио №1: Русский AC3 5.1, 448 kbps Дублированный(дубляж) | Лицензия
Аудио №2: Украинский AC3, 192 kbps Многоголосый закадровый (Новый Канал)
Аудио №2: Украинский AC3, 192 kbps Многоголосый закадровый (Так Треба Продакшн)
MediaInfo:
General
      Unique ID : 245319020764447185708698523986463129377 (0xB88EB98C9C5C56AC9BB24F79B1697F21)
      Complete name : Taxi.1998.720p.BDRip.Rus.Ukr.PSLanLaboratory.mkv
      Format : Matroska
      Format version : Version 4 / Version 2
      File size : 3.66 GiB
      Duration : 1h 29mn
      Overall bit rate : 5 832 Kbps
      Movie name : pslan.com
      Encoded date : UTC 2013-06-02 08:43:18
      Writing application : mkvmerge v6.1.0 ('Old Devil') built on Mar  2 2013 14:32:37
      Writing library : libebml v1.3.0 + libmatroska v1.4.0
   Video #1
      ID : 1
      Format : AVC
      Format/Info : Advanced Video Codec
      Format profile : High@L4.2
      Format settings, CABAC : Yes
      Format settings, ReFrames : 8 frames
      Codec ID : V_MPEG4/ISO/AVC
      Duration : 1h 29mn
      Bit rate : 5 000 Kbps
      Width : 1 280 pixels
      Height : 544 pixels
      Display aspect ratio : 2.35:1
      Frame rate mode : Constant
      Frame rate : 23.976 fps
      Color space : YUV
      Chroma subsampling : 4:2:0
      Bit depth : 8 bits
      Scan type : Progressive
      Bits/(Pixel*Frame) : 0.299
      Stream size : 3.06 GiB (84%)
      Writing library : x264 core 125 r2200 999b753
      Encoding settings : cabac=1 / ref=8 / deblock=1:0:0 / analyse=0x3:0x133 / me=umh / subme=9 / psy=1 / psy_rd=1.00:0.00 / mixed_ref=1 / me_range=16 / chroma_me=1 / trellis=2 / 8x8dct=1 / cqm=0 / deadzone=21,11 / fast_pskip=1 / chroma_qp_offset=-2 / threads=6 / lookahead_threads=1 / sliced_threads=0 / nr=0 / decimate=1 / interlaced=0 / bluray_compat=0 / constrained_intra=0 / bframes=3 / b_pyramid=2 / b_adapt=2 / b_bias=0 / direct=3 / weightb=1 / open_gop=0 / weightp=2 / keyint=250 / keyint_min=23 / scenecut=40 / intra_refresh=0 / rc_lookahead=60 / rc=2pass / mbtree=1 / bitrate=5000 / ratetol=1.0 / qcomp=0.60 / qpmin=0 / qpmax=69 / qpstep=4 / cplxblur=20.0 / qblur=0.5 / ip_ratio=1.40 / aq=1:1.00
      Default : Yes
      Forced : No
   Audio #2
      ID : 2
      Format : AC-3
      Format/Info : Audio Coding 3
      Mode extension : CM (complete main)
      Format settings, Endianness : Big
      Codec ID : A_AC3
      Duration : 1h 29mn
      Bit rate mode : Constant
      Bit rate : 448 Kbps
      Channel(s) : 6 channels
      Channel positions : Front: L C R, Side: L R, LFE
      Sampling rate : 48.0 KHz
      Bit depth : 16 bits
      Compression mode : Lossy
      Stream size : 288 MiB (8%)
      Title : Дубляж
      Language : Russian
      Default : Yes
      Forced : No
   Audio #3
      ID : 3
      Format : AC-3
      Format/Info : Audio Coding 3
      Mode extension : CM (complete main)
      Format settings, Endianness : Big
      Codec ID : A_AC3
      Duration : 1h 29mn
      Bit rate mode : Constant
      Bit rate : 192 Kbps
      Channel(s) : 1 channel
      Channel positions : Front: C
      Sampling rate : 48.0 KHz
      Bit depth : 16 bits
      Compression mode : Lossy
      Stream size : 123 MiB (3%)
      Title : Новий Канал
      Language : Ukrainian
      Default : No
      Forced : No
   Audio #4
      ID : 4
      Format : AC-3
      Format/Info : Audio Coding 3
      Mode extension : CM (complete main)
      Format settings, Endianness : Big
      Codec ID : A_AC3
      Duration : 1h 29mn
      Bit rate mode : Constant
      Bit rate : 192 Kbps
      Channel(s) : 1 channel
      Channel positions : Front: C
      Sampling rate : 48.0 KHz
      Bit depth : 16 bits
      Compression mode : Lossy
      Stream size : 123 MiB (3%)
      Title : Так Треба Продакшн
      Language : Ukrainian
      Default : No
      Forced : No

Скриншоты:
http://img.pslan.com/uploads/ff5f770437421b742a24939d8068bfd8.jpg http://img.pslan.com/uploads/7d813ba2bdbfb6e462eb736499bcad45.jpg http://img.pslan.com/uploads/22fd6cc1782444c7014853e9e36b7574.jpg
http://img.pslan.com/uploads/84a75f58e18883f5a8f6256747bd8fbf.jpg http://img.pslan.com/uploads/6a426c72383df1ed80b6dff0a3ed4573.jpg http://img.pslan.com/uploads/379c56706d3020de1b27b1015439aefb.jpg
(нажмите для увеличения)
Такси 2/ Taxi 2 (2000) 720p BDRip | Дубляж | PSLanLaboratory

http://img.pslan.com/uploads/d704080080c64f21afe3abc8c539fea5.jpg
Информация о фильме
Название: Такси 2
Оригинальное название: Taxi 2
Жанр: боевик, комедия, криминал
Страна: Франция
Год выпуска: 2000
Режиссер: Жерар Кравчик
В ролях: Сами Насери, Фредерик Дифенталь, Марион Котийяр, Эмма Сьоберг, Бернар Фарси, Жан-Кристоф Буве, Фредерик Тирмон, Марк Фор, Хирата Харухико, Цую Симидзу

О фильме: Во Францию прибывает министр обороны Японии. Цель его визита — ознакомиться с французским опытом борьбы с терроризмом и подписать «контракт века» о взаимном сотрудничестве.
Неожиданно во время показательных выступлений французской полиции министра обороны похищает гангстерская группировка «Якудза», желающая сорвать заключение наиважнейшего контракта. Даниэль и Эмильен отправляются на поиски высокого гостя. В дело вступает уже хорошо знакомое нам такси…

http://imdb.snick.ru/ratefor/03/tt0183869.png http://rating.kinopoisk.ru/854.gif http://www.hdclub.ua/button/movie/1230.png http://www.hdclub.ua/button/movie-disc/1299.png

Личная оценка: 10 из 10
Продолжительность:  01:28:25
Качество видео: 720p BDRip
Видео:
Кодек: AVC/х264, High@L4.2
Размер кадра: 1280x544
Битрейт: 5000 кб/с
Аудио
Аудио №1: Русский DTS 5.1, 1509 kbps Дублированный(дубляж) | Лицензия
Аудио №2: Украинский AC3 5.1, 448 kbps Многоголосый закадровый (Новый Канал)
Аудио №3: Украинский AC3, 5.1 448 kbps Двухголосный закадровый (1+1)
MediaInfo:
General
      Unique ID : 191554251663113735654418236999896809626 (0x901C01C5DAB73D76BFAF12475A9E409A)
      Complete name : Taxi.2.2000.720p.BDRip.Rus.Ukr.PSLanLaboratory.mkv
      Format : Matroska
      Format version : Version 4 / Version 2
      File size : 4.57 GiB
      Duration : 1h 28mn
      Overall bit rate : 7 403 Kbps
      Movie name : pslan.com
      Encoded date : UTC 2013-06-02 08:52:12
      Writing application : mkvmerge v6.1.0 ('Old Devil') built on Mar  2 2013 14:32:37
      Writing library : libebml v1.3.0 + libmatroska v1.4.0
   Video #1
      ID : 1
      Format : AVC
      Format/Info : Advanced Video Codec
      Format profile : High@L4.2
      Format settings, CABAC : Yes
      Format settings, ReFrames : 8 frames
      Codec ID : V_MPEG4/ISO/AVC
      Duration : 1h 28mn
      Bit rate : 5 000 Kbps
      Width : 1 280 pixels
      Height : 544 pixels
      Display aspect ratio : 2.35:1
      Frame rate mode : Constant
      Frame rate : 24.000 fps
      Color space : YUV
      Chroma subsampling : 4:2:0
      Bit depth : 8 bits
      Scan type : Progressive
      Bits/(Pixel*Frame) : 0.299
      Stream size : 3.00 GiB (66%)
      Writing library : x264 core 125 r2200 999b753
      Encoding settings : cabac=1 / ref=8 / deblock=1:0:0 / analyse=0x3:0x133 / me=umh / subme=9 / psy=1 / psy_rd=1.00:0.00 / mixed_ref=1 / me_range=16 / chroma_me=1 / trellis=2 / 8x8dct=1 / cqm=0 / deadzone=21,11 / fast_pskip=1 / chroma_qp_offset=-2 / threads=6 / lookahead_threads=1 / sliced_threads=0 / nr=0 / decimate=1 / interlaced=0 / bluray_compat=0 / constrained_intra=0 / bframes=3 / b_pyramid=2 / b_adapt=2 / b_bias=0 / direct=3 / weightb=1 / open_gop=0 / weightp=2 / keyint=250 / keyint_min=24 / scenecut=40 / intra_refresh=0 / rc_lookahead=60 / rc=2pass / mbtree=1 / bitrate=5000 / ratetol=1.0 / qcomp=0.60 / qpmin=0 / qpmax=69 / qpstep=4 / cplxblur=20.0 / qblur=0.5 / ip_ratio=1.40 / aq=1:1.00
      Default : Yes
      Forced : No
   Audio #2
      ID : 2
      Format : DTS
      Format/Info : Digital Theater Systems
      Mode : 16
      Format settings, Endianness : Big
      Codec ID : A_DTS
      Duration : 1h 28mn
      Bit rate mode : Constant
      Bit rate : 1 509 Kbps
      Channel(s) : 6 channels
      Channel positions : Front: L C R, Side: L R, LFE
      Sampling rate : 48.0 KHz
      Bit depth : 24 bits
      Compression mode : Lossy
      Stream size : 954 MiB (20%)
      Title : Дубляж
      Language : Russian
      Default : Yes
      Forced : No
   Audio #3
      ID : 3
      Format : AC-3
      Format/Info : Audio Coding 3
      Mode extension : CM (complete main)
      Format settings, Endianness : Big
      Codec ID : A_AC3
      Duration : 1h 28mn
      Bit rate mode : Constant
      Bit rate : 448 Kbps
      Channel(s) : 6 channels
      Channel positions : Front: L C R, Side: L R, LFE
      Sampling rate : 48.0 KHz
      Bit depth : 16 bits
      Compression mode : Lossy
      Stream size : 283 MiB (6%)
      Title : Новый канал
      Language : Ukrainian
      Default : No
      Forced : No
   Audio #4
      ID : 4
      Format : AC-3
      Format/Info : Audio Coding 3
      Mode extension : CM (complete main)
      Format settings, Endianness : Big
      Codec ID : A_AC3
      Duration : 1h 28mn
      Bit rate mode : Constant
      Bit rate : 448 Kbps
      Channel(s) : 6 channels
      Channel positions : Front: L C R, Side: L R, LFE
      Sampling rate : 48.0 KHz
      Bit depth : 16 bits
      Compression mode : Lossy
      Stream size : 283 MiB (6%)
      Title : двоголосий закадровий 1+1
      Language : Ukrainian
      Default : No
      Forced : No

Скриншоты:
http://img.pslan.com/uploads/eec395e09a49a810d3c5c05c3c437c83.jpg http://img.pslan.com/uploads/6e5845385a557e6c4afafc5dd858f901.jpg http://img.pslan.com/uploads/2d7afb9ff59d2bd2f9e27c746f6cbe89.jpg
http://img.pslan.com/uploads/8f55c77319e2cfd87fe9825f95a6f41b.jpg http://img.pslan.com/uploads/5cf963ae8355abb3b409f593f5ec3aca.jpg http://img.pslan.com/uploads/b74d431a6301774fcc961da439fba005.jpg
(нажмите для увеличения)
Такси 3/ Taxi 3 (2003) 720p BDRip | Дубляж | PSLanLaboratory

http://img.pslan.com/uploads/b8e839fde9470f9a2959f6acdfce195f.jpg  
Информация о фильме
Название: Такси 3
Оригинальное название: Taxi 3
Жанр: боевик, комедия, криминал
Страна: Франция
Год выпуска: 2003
Режиссер: Жерар Кравчик
В ролях: Сами Насери, Фредерик Дифенталь, Бернар Фарси, Бай Лин, Эмма Сьоберг, Марион Котийяр, Эдуард Монтут, Жан-Кристоф Буве, Леон-Пьер Мондини, Бернард Льопис

О фильме: Банда Санта-Клаусов терроризирует Марсель в канун Рождества, обещая обчистить город до основания. Комиссар полиции уже задумал провести крупномасштабную операцию под кодовым названием «Снеговик», в который главная роль отведена таксисту Даниелю и полицейскому Эмильену.
     Но как бы наши друзья не натворили куда больший вред, чем сами преступники, ведь чтобы поймать «мафию Дедов Морозов» друзья вытворяют на своем такси такое!

http://imdb.snick.ru/ratefor/03/tt0295721.png http://rating.kinopoisk.ru/14339.gif http://www.hdclub.ua/button/movie/1231.png http://www.hdclub.ua/button/movie-disc/1300.png

Личная оценка: 10 из 10
Продолжительность:  01:27:23
Качество видео: 720p BDRip
Видео:
Кодек: AVC/х264, High@L4.2
Размер кадра: 1280x544
Битрейт: 5000 кб/с
Аудио
Аудио №1: Русский DTS 5.1, 1509 kbps Дублированный(дубляж) | Лицензия
Аудио №2: Украинский AC3 5.1, 448 kbps Многоголосый закадровый (Новый Канал)
MediaInfo:
General
      Unique ID : 174742120117057931911329184315807130642 (0x83761BB0E47AB85BA3A85DB64F0C6412)
      Complete name : Taxi.3.2003.720p.BDRip.Rus.Ukr.PSLanLaboratory.mkv
      Format : Matroska
      Format version : Version 4 / Version 2
      File size : 4.61 GiB
      Duration : 1h 27mn
      Overall bit rate mode : Variable
      Overall bit rate : 7 545 Kbps
      Movie name : pslan.com
      Encoded date : UTC 2013-06-02 09:06:44
      Writing application : mkvmerge v6.1.0 ('Old Devil') built on Mar  2 2013 14:32:37
      Writing library : libebml v1.3.0 + libmatroska v1.4.0
   Video #1
      ID : 1
      Format : AVC
      Format/Info : Advanced Video Codec
      Format profile : High@L4.2
      Format settings, CABAC : Yes
      Format settings, ReFrames : 8 frames
      Codec ID : V_MPEG4/ISO/AVC
      Duration : 1h 27mn
      Nominal bit rate : 5 000 Kbps
      Width : 1 280 pixels
      Height : 544 pixels
      Display aspect ratio : 2.35:1
      Frame rate mode : Constant
      Frame rate : 24.000 fps
      Color space : YUV
      Chroma subsampling : 4:2:0
      Bit depth : 8 bits
      Scan type : Progressive
      Bits/(Pixel*Frame) : 0.299
      Writing library : x264 core 125 r2200 999b753
      Encoding settings : cabac=1 / ref=8 / deblock=1:0:0 / analyse=0x3:0x133 / me=umh / subme=9 / psy=1 / psy_rd=1.00:0.00 / mixed_ref=1 / me_range=16 / chroma_me=1 / trellis=2 / 8x8dct=1 / cqm=0 / deadzone=21,11 / fast_pskip=1 / chroma_qp_offset=-2 / threads=6 / lookahead_threads=1 / sliced_threads=0 / nr=0 / decimate=1 / interlaced=0 / bluray_compat=0 / constrained_intra=0 / bframes=3 / b_pyramid=2 / b_adapt=2 / b_bias=0 / direct=3 / weightb=1 / open_gop=0 / weightp=2 / keyint=250 / keyint_min=24 / scenecut=40 / intra_refresh=0 / rc_lookahead=60 / rc=2pass / mbtree=1 / bitrate=5000 / ratetol=1.0 / qcomp=0.60 / qpmin=0 / qpmax=69 / qpstep=4 / cplxblur=20.0 / qblur=0.5 / ip_ratio=1.40 / aq=1:1.00
      Default : Yes
      Forced : No
   Audio #2
      ID : 2
      Format : DTS
      Format/Info : Digital Theater Systems
      Format profile : MA / Core
      Mode : 16
      Format settings, Endianness : Big
      Codec ID : A_DTS
      Duration : 1h 27mn
      Bit rate mode : Variable
      Bit rate : Unknown / 1 509 Kbps
      Channel(s) : 6 channels
      Channel positions : Front: L C R, Side: L R, LFE
      Sampling rate : 48.0 KHz
      Bit depth : 16 bits
      Compression mode : Lossless / Lossy
      Title : Дубляж
      Language : Russian
      Default : Yes
      Forced : No
   Audio #3
      ID : 3
      Format : AC-3
      Format/Info : Audio Coding 3
      Mode extension : CM (complete main)
      Format settings, Endianness : Big
      Codec ID : A_AC3
      Duration : 1h 27mn
      Bit rate mode : Constant
      Bit rate : 448 Kbps
      Channel(s) : 6 channels
      Channel positions : Front: L C R, Side: L R, LFE
      Sampling rate : 44.1 KHz
      Bit depth : 16 bits
      Compression mode : Lossy
      Stream size : 280 MiB (6%)
      Title : Новый канал
      Language : Ukrainian
      Default : No
      Forced : No

Скриншоты:
http://img.pslan.com/uploads/e161443b5ef2b67eb33965aa673ce882.jpg http://img.pslan.com/uploads/7effbb384ed429d9fbae6d5db2495115.jpg http://img.pslan.com/uploads/3073bc9045eb2fa516a5f6f3ba5ccee8.jpg
http://img.pslan.com/uploads/1980897779abcd57050e402c99e05063.jpg http://img.pslan.com/uploads/6c1bf25818151bd50f898671efc41fab.jpg http://img.pslan.com/uploads/ca2ba80080990d38e00ea28a93be786c.jpg
(нажмите для увеличения)
Такси 4/ Taxi 4 (2007) 720p BDRip | Дубляж | PSLanLaboratory

http://img.pslan.com/uploads/4e4a7afb20e7b294c78531e80f4d268e.jpg
Информация о фильме
Название: Такси 4
Оригинальное название: Taxi 4
Жанр: боевик, комедия, криминал
Страна: Франция
Год выпуска: 2007
Режиссер: Жерар Кравчик
В ролях: Сами Насери, Фредерик Дифенталь, Бернар Фарси, Эмма Сьоберг, Эдуард Монтаут, Жан-Кристоф Буве, Жан-Люк Кучар, Франсуа Дамиенс, Морад Зегвенди, Дрисс Спиноза

О фильме: Преступника № 1 транспортируют из Бельгии в Конго. .. через Марсель. Всего несколько часов самый опасный человек в мире, надежно упакованный в скафандр и железную клетку, должен пробыть в полицейском участке комиссара Жибера. Но стеречь преступника доверили Эмильену... Петра внедрится в банду и очарует злодея, Жибер задаст жару бандитам и покажет, как настоящие французы играют в футбол. И, конечно, полицейским Марселя опять не обойтись без помощи Даниеля и его реактивного такси.

http://imdb.snick.ru/ratefor/03/tt0804540.png http://rating.kinopoisk.ru/258478.gif

Личная оценка: 10 из 10
Продолжительность:  01:37:36
Качество видео: 720p BDRip
Видео:
Кодек: AVC/х264, High@L4.2
Размер кадра: 1280x544
Битрейт: 5000 кб/с
Аудио
Аудио №1: Русский DTS 5.1, 755 kbps Дублированный(дубляж) | Лицензия
Аудио №2: Украинский AC3 2.0, 384 kbps Многоголосый закадровый (ТРК Украина)
MediaInfo:
General
      Unique ID : 208373013733221077772102625046294841122 (0x9CC32EC3CBA64256955DE237DA264722)
      Complete name : Taxi.4.2007.720p.BDRip.Rus.Ukr.PSLanLaboratory.mkv
      Format : Matroska
      Format version : Version 4 / Version 2
      File size : 4.18 GiB
      Duration : 1h 37mn
      Overall bit rate : 6 139 Kbps
      Movie name : pslan.com
      Encoded date : UTC 2013-06-02 09:15:04
      Writing application : mkvmerge v6.1.0 ('Old Devil') built on Mar  2 2013 14:32:37
      Writing library : libebml v1.3.0 + libmatroska v1.4.0
   Video #1
      ID : 1
      Format : AVC
      Format/Info : Advanced Video Codec
      Format profile : High@L4.2
      Format settings, CABAC : Yes
      Format settings, ReFrames : 8 frames
      Codec ID : V_MPEG4/ISO/AVC
      Duration : 1h 37mn
      Bit rate : 5 000 Kbps
      Width : 1 280 pixels
      Height : 544 pixels
      Display aspect ratio : 2.35:1
      Frame rate mode : Constant
      Frame rate : 23.976 fps
      Color space : YUV
      Chroma subsampling : 4:2:0
      Bit depth : 8 bits
      Scan type : Progressive
      Bits/(Pixel*Frame) : 0.299
      Stream size : 3.32 GiB (79%)
      Writing library : x264 core 125 r2200 999b753
      Encoding settings : cabac=1 / ref=8 / deblock=1:0:0 / analyse=0x3:0x133 / me=umh / subme=9 / psy=1 / psy_rd=1.00:0.00 / mixed_ref=1 / me_range=16 / chroma_me=1 / trellis=2 / 8x8dct=1 / cqm=0 / deadzone=21,11 / fast_pskip=1 / chroma_qp_offset=-2 / threads=6 / lookahead_threads=1 / sliced_threads=0 / nr=0 / decimate=1 / interlaced=0 / bluray_compat=0 / constrained_intra=0 / bframes=3 / b_pyramid=2 / b_adapt=2 / b_bias=0 / direct=3 / weightb=1 / open_gop=0 / weightp=2 / keyint=250 / keyint_min=23 / scenecut=40 / intra_refresh=0 / rc_lookahead=60 / rc=2pass / mbtree=1 / bitrate=5000 / ratetol=1.0 / qcomp=0.60 / qpmin=0 / qpmax=69 / qpstep=4 / cplxblur=20.0 / qblur=0.5 / ip_ratio=1.40 / aq=1:1.00
      Default : Yes
      Forced : No
   Audio #2
      ID : 2
      Format : DTS
      Format/Info : Digital Theater Systems
      Mode : 16
      Format settings, Endianness : Big
      Codec ID : A_DTS
      Duration : 1h 37mn
      Bit rate mode : Constant
      Bit rate : 755 Kbps
      Channel(s) : 6 channels
      Channel positions : Front: L C R, Side: L R, LFE
      Sampling rate : 48.0 KHz
      Bit depth : 24 bits
      Compression mode : Lossy
      Stream size : 526 MiB (12%)
      Title : Дубляж
      Language : Russian
      Default : Yes
      Forced : No
   Audio #3
      ID : 3
      Format : AC-3
      Format/Info : Audio Coding 3
      Mode extension : CM (complete main)
      Format settings, Endianness : Big
      Codec ID : A_AC3
      Duration : 1h 37mn
      Bit rate mode : Constant
      Bit rate : 384 Kbps
      Channel(s) : 2 channels
      Channel positions : Front: L R
      Sampling rate : 48.0 KHz
      Bit depth : 16 bits
      Compression mode : Lossy
      Stream size : 268 MiB (6%)
      Title : ТРК Украина
      Language : Ukrainian
      Default : No
      Forced : No

Скриншоты:
http://img.pslan.com/uploads/33d7b2791d8c5671afc3341942cabf9a.jpg http://img.pslan.com/uploads/566bde7302f822e1377404d08f3a03d8.jpg http://img.pslan.com/uploads/5cfd57279bc68f0ed267c407850fbe89.jpg
http://img.pslan.com/uploads/be6260ac4827c7bb8af41cc59f90a15a.jpg http://img.pslan.com/uploads/ece0b8d2ee7ceed5afd087ab984efcdb.jpg http://img.pslan.com/uploads/e9dd06032163f23502b42d889c8bc493.jpg
(нажмите для увеличения)

Такси: Квадрология / Taxi : Quadrology (1998/2000/2003/2007) 1080p BDRip

Релиз группа:
/rgroup/P.S.Lan_Laboratory.gif
Скриншоты    
РаздающийПоследний раз был здесь 42d 06:32:36 назад
Размер17.02 GB (18,270,362,770 байт)
Добавлен2013-06-02 21:27:03
Скачан64 раз
BONUSDownload на 80% не учитывается!

место под вашу рекламу

Комментарии

  1. 1
    Не в сети S@nyurkaDonor - Super User (2013-06-02 21:31:00) upload 21.946 TB, download 5.65 GB, 3,974.28
    Всем приятного просмотра.
  2. 2
    Не в сети Evgeniyon - Super User (2013-06-03 15:32:00) upload 1.192 TB, download 144.99 GB, 8.42
    спасибо
Всего 2 на 1 страницах по 10 на каждой странице.

vkontakte Last.fm Twitter Одноклассники P.S.Lan
reklama




Загрузка...