Привет, друг!!!

  • Если что-то не получается
  • Алексей (Skype)
  • katafalk555
  • Помощь по форуму
  • 473868046 Женя
  • Общие вопросы
  • Татьяна (QIP)
  • User ID: tarantinka3
загрузка...

Армагеддон / Armageddon (1998) 1080p BDRip | RUS/UKR [Дубляж] | PSLanLaboratory

Иностранное кино HD-VIDEOСкачать: Армагеддон / Armageddon (1998) 1080p BDRip | RUS/UKR [Дубляж] | PSLanLaboratory

Проверен
Рейтинг10490
              
Обложка
Армагеддон / Armageddon (1998) 1080p BDRip | RUS/UKR [Дубляж] | PSLanLaboratory
Описание
Информация о фильме
Название: Такси: Армагеддон
Оригинальное название: Armageddon
Жанр: боевик, приключения, фантастика
Страна: США
Год выпуска: 1998
Режиссер: Майкл Бэй
В ролях: Брюс Уиллис, Бен Аффлек, Лив Тайлер, Уилл Пэттон, Билли Боб Торнтон, Стив Бушеми, Уильям Фихтнер, Оуэн Уилсон, Майкл Кларк

О фильме: Тень гигантского астероида легла на Землю. До рокового столкновения остаются считанные дни. Наступает Армагеддон, трагический финал мировой истории. Чтобы предотвратить катастрофу, необходимо чудо - или совместные усилия лучших из лучших вместе с технологической мощью всего созданного человеком. Сможет ли горстка людей противостоять вселенской стихии?..

http://imdb.snick.ru/ratefor/03/tt0120591.png http://rating.kinopoisk.ru/2941.gif http://www.hdclub.ua/button/movie/152.png

Личная оценка: 10 из 10
Продолжительность:  02:30:50
Качество видео: 1080p BDRip
Видео:
Кодек: AVC/х264, High@L4.2
Размер кадра: 1920x800
Битрейт: 15000 кб/с
Аудио
Аудио №1: Русский AC3 5.1, 640 kbps Дублированный(дубляж) | Лицензия
Аудио №2: Украинский AC3, 256 kbps Многоголосый закадровый (1+1)
MediaInfo:
General
      Unique ID : 190393208295305398925279803352724107077 (0x8F3C65EA4CDEE8EF84FE6C48D0296F45)
      Complete name : Armageddon.1998.1080p.BDRip.Rus.Ukr.PSLanLaboratory.mkv
      Format : Matroska
      Format version : Version 4 / Version 2
      File size : 16.7 GiB
      Duration : 2h 30mn
      Overall bit rate : 15.9 Mbps
      Movie name : pslan.com
      Encoded date : UTC 2013-06-07 17:34:27
      Writing application : mkvmerge v6.1.0 ('Old Devil') built on Mar  2 2013 14:32:37
      Writing library : libebml v1.3.0 + libmatroska v1.4.0
   Video #1
      ID : 1
      Format : AVC
      Format/Info : Advanced Video Codec
      Format profile : High@L4.2
      Format settings, CABAC : Yes
      Format settings, ReFrames : 5 frames
      Codec ID : V_MPEG4/ISO/AVC
      Duration : 2h 30mn
      Bit rate : 15.0 Mbps
      Width : 1 920 pixels
      Height : 800 pixels
      Display aspect ratio : 2.40:1
      Frame rate mode : Constant
      Frame rate : 23.976 fps
      Color space : YUV
      Chroma subsampling : 4:2:0
      Bit depth : 8 bits
      Scan type : Progressive
      Bits/(Pixel*Frame) : 0.407
      Stream size : 15.5 GiB (92%)
      Writing library : x264 core 125 r2200 999b753
      Encoding settings : cabac=1 / ref=5 / deblock=1:0:0 / analyse=0x3:0x133 / me=umh / subme=9 / psy=1 / psy_rd=1.00:0.00 / mixed_ref=1 / me_range=32 / chroma_me=1 / trellis=2 / 8x8dct=1 / cqm=0 / deadzone=21,11 / fast_pskip=1 / chroma_qp_offset=-2 / threads=6 / lookahead_threads=1 / sliced_threads=0 / nr=0 / decimate=1 / interlaced=0 / bluray_compat=0 / constrained_intra=0 / bframes=3 / b_pyramid=2 / b_adapt=2 / b_bias=0 / direct=3 / weightb=1 / open_gop=0 / weightp=2 / keyint=250 / keyint_min=23 / scenecut=40 / intra_refresh=0 / rc_lookahead=60 / rc=2pass / mbtree=1 / bitrate=15000 / ratetol=1.0 / qcomp=0.60 / qpmin=0 / qpmax=69 / qpstep=4 / cplxblur=20.0 / qblur=0.5 / ip_ratio=1.40 / aq=1:1.00
      Default : Yes
      Forced : No
   Audio #2
      ID : 2
      Format : AC-3
      Format/Info : Audio Coding 3
      Mode extension : CM (complete main)
      Format settings, Endianness : Big
      Codec ID : A_AC3
      Duration : 2h 30mn
      Bit rate mode : Constant
      Bit rate : 640 Kbps
      Channel(s) : 6 channels
      Channel positions : Front: L C R, Side: L R, LFE
      Sampling rate : 48.0 KHz
      Bit depth : 16 bits
      Compression mode : Lossy
      Stream size : 690 MiB (4%)
      Title : Дубляж
      Language : Russian
      Default : Yes
      Forced : No
   Audio #3
      ID : 3
      Format : AC-3
      Format/Info : Audio Coding 3
      Mode extension : CM (complete main)
      Format settings, Endianness : Big
      Codec ID : A_AC3
      Duration : 2h 30mn
      Bit rate mode : Constant
      Bit rate : 256 Kbps
      Channel(s) : 2 channels
      Channel positions : Front: L R
      Sampling rate : 48.0 KHz
      Bit depth : 16 bits
      Compression mode : Lossy
      Stream size : 276 MiB (2%)
      Title : 1+1
      Language : Ukrainian
      Default : No
      Forced : No

Релиз группа:
/rgroup/P.S.Lan_Laboratory.gif

Скриншоты[Скриншот №1] - Армагеддон / Armageddon (1998) 1080p BDRip | RUS/UKR [Дубляж] | PSLanLaboratory  [Скриншот №2] - Армагеддон / Armageddon (1998) 1080p BDRip | RUS/UKR [Дубляж] | PSLanLaboratory  [Скриншот №3] - Армагеддон / Armageddon (1998) 1080p BDRip | RUS/UKR [Дубляж] | PSLanLaboratory
РаздающийПоследний раз был здесь 17d 12:26:51 назад
Размер16.75 GB (17,984,629,572 байт)
Добавлен2013-06-09 12:17:57
Скачан98 раз
BONUSDownload на 80% не учитывается!

место под вашу рекламу

Комментарии

  1. 1
    Не в сети Petro_lunyo - Пользователь (2013-06-09 13:53:40) upload 399.31 GB, download 641.72 GB, 0.62
    а где роздача??????
  2. 2
    Не в сети rolikson - Super User (2013-06-09 14:32:47) upload 872.68 GB, download 187.81 GB, 4.65
    Фильм классный. Автору спасибо
    _____________________

    Последний раз редактировалось rolikson в 2013-12-12 01:03:42

Всего 2 на 1 страницах по 10 на каждой странице.

vkontakte Last.fm Twitter Одноклассники P.S.Lan
reklama




Загрузка...