Привет, друг!!!

  • Если что-то не получается
  • Алексей (Skype)
  • katafalk555
  • Помощь по форуму
  • 473868046 Женя
  • Общие вопросы
  • Татьяна (QIP)
  • User ID: tarantinka3
загрузка...

Inna - Caliente (2012) 1080р HDTV

КлипыСкачать: Inna - Caliente (2012) 1080р HDTV

Проверен
Рейтинг500
              
Обложка
Описание
Информация о релизе
Название: Inna - Caliente
Жанр: музыкальный клип, рор
Страна: Румыния
Год выпуска: 2012

О клипе: Предлагаю вашему вниманию видеоклип очаровательной Inna, на песню Caliente.

Личная оценка: 9 из 10
Продолжительность: 00:03:29
Качество видео: 1080р HDTV
Видео
Кодек: H.26x
Размер кадра: 1920x1080
Битрейт: 14200 кб/с
Аудио
Язык: испанский
Перевод: оригинал
Кодек: PCM
Битрейт: 2305 кб/с

Релиз группа:
/rgroup/Naideno_v_seti.jpg
Скриншоты[Скриншот №1] - Inna - Caliente (2012) 1080р HDTV  [Скриншот №2] - Inna - Caliente (2012) 1080р HDTV  [Скриншот №3] - Inna - Caliente (2012) 1080р HDTV
РаздающийПоследний раз был здесь 231d 22:04:29 назад
Размер412.51 MB (432,545,465 байт)
Добавлен2013-09-13 20:13:47
Скачан208 раз

место под вашу рекламу

Комментарии

  1. 1
    Не в сети F_E_N_I_K_S - Клипы / Трейлеры (2013-09-13 19:58:35) upload 25.773 TB, download 0.00 kB, 7,084,450,318,597.75
    http://i041.radikal.ru/1102/4e/2884f6cb2d95.gif


    http://content.foto.mail.ru/mail/lusi_818/_animated/i-8.gif
  2. 2
    Не в сети UraTumko - Super User (2013-09-13 20:30:20) upload 2.641 TB, download 659.79 GB, 4.10
    а чего такой размер большой?
  3. 3
    Не в сети F_E_N_I_K_S - Клипы / Трейлеры (2013-09-13 20:39:11) upload 25.773 TB, download 0.00 kB, 7,084,450,318,597.75
    Обратите внимание на битрейт и кодеки файла... Поэтому и размер такой)))
  4. 4
    Не в сети maxdfg - Super User (2013-09-13 23:39:50) upload 1.414 TB, download 362.11 GB, 4.00
    Потому что MKV!
  5. 5
    Не в сети andron9900 - Super User (2013-09-14 10:22:51) upload 154.21 GB, download 30.05 GB, 5.13
    Фейк.

    Скрытый текст
    Общее
    Идентификатор                            : 0 (0x0)
    Полное имя                               : INNA BDRip\INNA - Caliente 1080p.m2ts
    Формат                                   : BDAV
    Формат/Информация                        : Blu-ray Video
    Размер файла                             : 219 Мбайт
    Продолжительность                        : 3 м. 21 с.
    Режим общего битрейта                    : Переменный
    Общий поток                              : 9093 Кбит/сек
    Максимальный общий битрейт               : 48,0 Мбит/сек

    Видео
    Идентификатор                            : 4113 (0x1011)
    Идентификатор меню                       : 1 (0x1)
    Формат                                   : AVC
    Формат/Информация                        : Advanced Video Codec
    Профиль формата                          : High@L4.0
    Параметр CABAC формата                   : Да
    Параметр ReFrames формата                : 2 кадра
    Идентификатор кодека                     : 27
    Продолжительность                        : 3 м. 21 с.
    Вид битрейта                             : Переменный
    Битрейт                                  : 7188 Кбит/сек
    Максимальный битрейт                     : 8000 Кбит/сек
    Ширина                                   : 1920 пикселей
    Высота                                   : 1080 пикселей
    Соотношение сторон                       : 16:9
    Частота кадров                           : 23,976 кадра/сек
    Цветовое пространство                    : YUV
    Субдискретизация насыщенности            : 4:2:0
    Битовая глубина                          : 8 бит
    Тип развёртки                            : Прогрессивная
    Бит/(Пиксели*Кадры)                      : 0.145
    Размер потока                            : 173 Мбайт (79%)

    Аудио
    Идентификатор                            : 4352 (0x1100)
    Идентификатор меню                       : 1 (0x1)
    Формат                                   : PCM
    Параметр Endianness формата              : Big
    Параметр Sign формата                    : Signed
    Режим смешивания                         : Blu-ray
    Идентификатор кодека                     : 128
    Продолжительность                        : 3 м. 21 с.
    Вид битрейта                             : Постоянный
    Битрейт                                  : 1536 Кбит/сек
    Каналы                                   : 2 канала
    Расположение каналов                     : Front: L R
    Частота                                  : 48,0 КГц
    Битовая глубина                          : 16 бит
    Размер потока                            : 37,0 Мбайт (17%)

  6. 6
    Не в сети pchela791008 - Пользователь (2013-09-14 13:01:20) upload 3.883 TB, download 3.954 TB, 0.98
    офигенная девочка
Всего 6 на 1 страницах по 10 на каждой странице.

vkontakte Last.fm Twitter Одноклассники P.S.Lan
reklama




Загрузка...